<?xml version="1.0" standalone="no"?>
<!DOCTYPE svg PUBLIC "-//W3C//DTD SVG 1.1//EN" "http://www.w3.org/Graphics/SVG/1.1/DTD/svg11.dtd" >
<svg xmlns="http://www.w3.org/2000/svg" xmlns:xlink="http://www.w3.org/1999/xlink" version="1.1">
<metadata>
Created by FontForge 20190801 at Tue Aug 23 00:40:23 2005
 By Jimmy Wärting
Version 1.04/created on 16-11-1994/Copr.Dutch Type Library / URW#D019033D
</metadata>
<defs>
<font id="DocumentaDtlItalic" horiz-adv-x="597" >
  <font-face 
    font-family="Documenta Dtl Italic"
    font-weight="400"
    font-style="italic"
    font-stretch="normal"
    units-per-em="1000"
    panose-1="0 0 4 0 0 0 0 0 0 0"
    ascent="800"
    descent="-200"
    x-height="471"
    cap-height="683"
    bbox="-210 -239 1096 949"
    underline-thickness="20"
    underline-position="-143"
    slope="-11"
    stemh="37"
    stemv="88"
    unicode-range="U+0020-FB02"
  />
<missing-glyph horiz-adv-x="500" 
d="M63 0v761h375v-761h-375zM125 63h250v636h-250v-636z" />
    <glyph glyph-name="fi" unicode="fi" horiz-adv-x="552" 
d="M598 705l-52 -54c-32 33 -92 58 -135 58c-58 0 -101 -29 -129 -87c-17 -35 -31 -89 -42 -164h165c45 0 82 5 110 14l-60 -241c-25 -100 -37 -156 -37 -167c0 -15 7 -23 21 -23c20 0 39 8 57 24l17 -28c-33 -27 -70 -40 -111 -40c-45 0 -68 16 -68 49c0 19 9 64 28 134
c15 59 31 117 47 176c2 8 6 26 12 55h-188c-9 -56 -26 -144 -51 -264c-21 -89 -38 -148 -51 -179c-23 -55 -59 -103 -107 -144c-45 -39 -97 -58 -154 -58c-41 0 -68 9 -80 26l44 60c18 -9 45 -14 80 -14c39 0 69 11 90 32c25 24 46 67 63 130c12 43 28 115 48 216
s32 166 35 195h-104l8 47h105c13 104 48 183 106 238c51 47 110 71 177 71c71 0 123 -21 156 -62z" />
    <glyph glyph-name="fl" unicode="fl" horiz-adv-x="585" 
d="M598 767c-13 -83 -49 -249 -108 -499c-27 -113 -40 -181 -40 -204c0 -15 9 -23 27 -23c20 0 39 8 57 24l17 -28c-33 -27 -71 -40 -114 -40c-48 0 -67 14 -67 55c0 30 16 111 49 244c5 21 14 60 27 115h-213c-9 -56 -26 -144 -51 -264c-21 -89 -38 -148 -51 -179
c-23 -55 -59 -103 -107 -144c-45 -39 -97 -58 -154 -58c-41 0 -68 9 -80 26l44 60c18 -9 45 -14 80 -14c39 0 69 11 90 32c25 24 46 67 63 130c12 43 28 115 48 216s32 166 35 195h-104l8 47h105c13 104 48 183 106 238c51 47 110 71 177 71c37 0 67 -7 89 -20
c25 5 47 11 67 20zM503 685c-17 16 -46 24 -85 24c-53 0 -93 -19 -119 -58c-26 -38 -46 -102 -59 -193h217c25 103 40 179 46 227z" />
    <glyph glyph-name=".notdef" horiz-adv-x="500" 
d="M63 0v761h375v-761h-375zM125 63h250v636h-250v-636z" />
    <glyph glyph-name="space" unicode=" " horiz-adv-x="200" 
 />
    <glyph glyph-name="exclam" unicode="!" horiz-adv-x="299" 
d="M257 640c-2 -17 -7 -55 -15 -113c-4 -23 -15 -76 -33 -159c-14 -55 -29 -115 -46 -182h-32c1 37 3 98 7 182c3 35 8 88 16 159c5 37 12 75 19 113c6 35 23 53 50 53s39 -18 34 -53zM173 46c-4 -33 -29 -56 -60 -56c-33 0 -47 19 -42 56c4 32 30 57 59 57
c33 0 48 -19 43 -57z" />
    <glyph glyph-name="quotedbl" unicode="&#x22;" horiz-adv-x="358" 
d="M345 722c-6 -36 -25 -102 -58 -199h-37c-3 91 -2 157 5 199c5 33 17 44 52 44c27 0 40 -9 40 -27c0 -5 -1 -10 -2 -17zM166 722c-6 -36 -25 -102 -58 -199h-37c-3 91 -2 157 5 199c5 33 17 44 52 44c27 0 40 -9 40 -27c0 -5 -1 -10 -2 -17z" />
    <glyph glyph-name="numbersign" unicode="#" horiz-adv-x="708" 
d="M738 486l-12 -46h-164l-57 -216h163l-13 -46h-163l-40 -159h-50l41 159h-157l-40 -159h-50l41 159h-163l13 46h162l58 216h-162l12 46h161l47 179h50l-47 -179h157l46 179h50l-47 -179h164zM513 440h-157l-57 -216h156z" />
    <glyph glyph-name="dollar" unicode="$" horiz-adv-x="531" 
d="M522 688l-15 -89c-3 -19 -8 -48 -13 -89h-38c3 16 5 29 5 40c0 52 -33 82 -99 89l-40 -248c21 -12 43 -24 64 -36c30 -17 53 -35 68 -54c21 -25 31 -54 31 -86c0 -66 -24 -119 -72 -160c-44 -37 -95 -56 -153 -56l-15 -93h-52l15 94c-10 0 -26 3 -49 9
c-29 7 -53 17 -72 28l-17 -42h-39l17 98c3 19 8 51 14 98h38c-1 -11 -2 -21 -2 -30c0 -41 14 -72 43 -93c22 -16 47 -24 74 -24l44 275c-47 26 -79 48 -98 65c-35 32 -52 69 -52 110c0 65 23 114 68 147c37 28 84 42 140 42l13 83h52l-14 -85c11 0 27 -3 50 -9
s39 -13 50 -20l16 36h38zM310 641c-38 0 -69 -9 -93 -28c-25 -21 -38 -49 -38 -86c0 -46 31 -85 94 -116zM408 179c0 51 -33 91 -100 120l-41 -257c36 0 67 10 93 30c32 24 48 60 48 107z" />
    <glyph glyph-name="percent" unicode="%" horiz-adv-x="769" 
d="M380 603c0 -55 -20 -103 -59 -145s-84 -63 -137 -63c-80 0 -133 50 -133 137c0 54 19 101 57 142s84 62 137 62c84 0 135 -50 135 -133zM685 733l-591 -833l-44 30l590 836zM681 138c0 -55 -20 -103 -59 -145s-84 -63 -137 -63c-80 0 -133 50 -133 137
c0 53 19 101 57 142c39 41 84 62 137 62c84 0 135 -50 135 -133zM313 597c0 67 -25 100 -75 100c-41 0 -73 -20 -96 -61c-17 -31 -26 -64 -26 -100c0 -67 26 -100 78 -100c39 0 69 19 91 56c19 31 28 66 28 105zM614 132c0 67 -25 100 -75 100c-41 0 -73 -20 -96 -61
c-17 -31 -26 -64 -26 -100c0 -67 26 -100 78 -100c39 0 69 19 91 56c19 31 28 66 28 105z" />
    <glyph glyph-name="ampersand" unicode="&#x26;" horiz-adv-x="747" 
d="M719 465c0 -56 -39 -104 -118 -144c37 -21 55 -60 55 -118c0 -67 -33 -121 -99 -161c-56 -35 -120 -52 -191 -52c-83 0 -146 20 -189 59c-34 31 -51 71 -51 119c0 49 15 90 46 125c34 39 84 66 151 80c-3 1 -10 7 -23 17c-37 -12 -83 -18 -137 -18c-45 0 -79 9 -104 26
c-23 15 -34 36 -34 62c0 22 11 42 34 61c8 -33 32 -60 72 -80c31 -15 62 -23 91 -23c17 0 32 1 44 2c-47 33 -71 74 -71 123c0 45 17 85 52 118c35 34 78 51 131 51c51 0 91 -12 118 -36c25 -21 37 -50 37 -85c0 -57 -29 -105 -86 -143c-35 -24 -69 -39 -102 -45
c21 -13 37 -20 49 -20v-27c-49 -3 -90 -18 -123 -44c-36 -29 -54 -67 -54 -113c0 -41 15 -75 45 -102c34 -31 81 -47 142 -47c53 0 98 13 135 39c40 27 60 63 60 108c0 59 -21 88 -62 88c-20 0 -39 -7 -58 -21c-18 -13 -27 -29 -27 -48c0 -27 20 -42 59 -43l-16 -23
c-23 0 -45 6 -67 17c-29 15 -44 35 -44 62s18 53 54 76c7 5 40 22 99 51s90 45 95 48c31 20 47 40 47 60c0 27 -23 41 -43 41c-5 0 -14 -2 -26 -7c0 37 16 55 49 55c40 0 60 -29 60 -88zM457 589c0 57 -26 85 -79 85c-70 0 -105 -40 -105 -120c0 -32 7 -61 20 -86
c10 -20 20 -32 29 -36c35 6 65 22 91 49c29 31 44 67 44 108z" />
    <glyph glyph-name="quoteright" unicode="&#x2019;" horiz-adv-x="252" 
d="M284 695c0 -39 -14 -73 -43 -100c-31 -29 -71 -48 -118 -56l-23 36c74 19 111 43 111 71c0 10 -7 21 -20 34s-20 25 -20 38c0 33 18 49 53 49c36 0 60 -29 60 -72z" />
    <glyph glyph-name="parenleft" unicode="(" horiz-adv-x="393" 
d="M438 746c-73 -70 -133 -157 -181 -260c-52 -112 -78 -237 -78 -375c0 -94 13 -170 38 -229c15 -33 37 -65 66 -96l-26 -25c-29 17 -58 49 -87 96c-47 76 -70 165 -70 266c0 140 36 273 107 399c32 57 69 110 112 159c37 42 69 73 98 92z" />
    <glyph glyph-name="parenright" unicode=")" horiz-adv-x="393" 
d="M303 411c0 -140 -36 -273 -107 -399c-32 -57 -69 -110 -112 -159c-37 -42 -69 -73 -98 -92l-21 27c73 70 133 157 181 260c52 112 78 237 78 375c0 94 -13 170 -38 229c-15 33 -37 65 -66 96l26 25c29 -17 58 -49 87 -96c47 -76 70 -165 70 -266z" />
    <glyph glyph-name="asterisk" unicode="*" horiz-adv-x="499" 
d="M429 644l-148 -53l131 -54l-50 -69l-101 96l-2 -149h-79l50 149l-131 -94l-28 69l149 51l-133 53l50 69l101 -94l-2 148h79l-46 -148l132 96z" />
    <glyph glyph-name="plus" unicode="+" horiz-adv-x="527" 
d="M497 269l-10 -64h-194l-33 -205h-68l33 205h-194l10 64h194l33 205h68l-33 -205h194z" />
    <glyph glyph-name="comma" unicode="," horiz-adv-x="233" 
d="M175 33c0 -39 -14 -73 -43 -100c-31 -29 -71 -48 -118 -56l-23 36c74 19 111 43 111 71c0 10 -7 21 -20 34s-20 25 -20 38c0 33 18 49 53 49c36 0 60 -29 60 -72z" />
    <glyph glyph-name="hyphen" unicode="-" horiz-adv-x="405" 
d="M340 290l-12 -74h-263l12 74h263z" />
    <glyph glyph-name="period" unicode="." horiz-adv-x="186" 
d="M148 46c-4 -33 -29 -56 -60 -56c-33 0 -47 19 -42 56c4 32 30 57 59 57c33 0 48 -19 43 -57z" />
    <glyph glyph-name="slash" unicode="/" horiz-adv-x="386" 
d="M466 742l-463 -925l-51 32l459 921z" />
    <glyph glyph-name="zero" unicode="0" 
d="M544 426c0 -113 -23 -211 -68 -295c-51 -94 -118 -141 -201 -141c-70 0 -124 26 -163 79s-58 123 -58 212c0 109 24 205 73 286c53 90 121 135 205 135c141 0 212 -92 212 -276zM451 427c0 76 -7 131 -22 165c-19 42 -51 63 -98 63c-60 0 -107 -43 -140 -128
c-29 -73 -43 -159 -43 -258c0 -77 8 -133 24 -168c19 -43 53 -64 101 -64c63 0 110 45 141 136c25 71 37 155 37 254z" />
    <glyph glyph-name="one" unicode="1" 
d="M403 38l-6 -38c-8 0 -30 0 -67 1c-36 1 -63 1 -80 1s-45 0 -82 -1s-59 -1 -67 -1l6 38c31 0 54 2 69 7c27 8 42 24 46 49l81 508c-14 -2 -36 -3 -67 -3s-53 1 -65 3l6 38c20 0 49 6 88 17s70 23 91 35h45l-95 -598c-4 -25 6 -41 31 -49c13 -5 35 -7 66 -7z" />
    <glyph glyph-name="two" unicode="2" 
d="M525 541c0 -51 -20 -104 -59 -159c-30 -41 -78 -93 -145 -155c-35 -31 -88 -80 -160 -146h330l-13 -81h-438l7 43c35 32 102 94 200 185c67 63 108 106 125 128c38 48 57 95 57 142c0 42 -13 74 -39 97c-23 19 -50 28 -82 28c-75 0 -121 -34 -121 -93c0 -23 7 -42 22 -58
l-33 -23c-25 19 -38 49 -38 89c0 45 16 82 47 113c35 34 83 51 144 51s110 -16 146 -47c33 -29 50 -67 50 -114z" />
    <glyph glyph-name="three" unicode="3" 
d="M505 566c0 -42 -21 -83 -64 -123c-30 -28 -59 -48 -86 -59c33 -12 63 -29 88 -51c38 -35 57 -76 57 -124c0 -62 -24 -114 -71 -156s-107 -63 -179 -63c-56 0 -102 16 -139 49c-25 22 -43 47 -52 75l33 38c9 -27 27 -50 53 -70c30 -24 64 -36 102 -36
c102 0 153 47 153 141c0 44 -20 80 -61 107c-34 23 -77 38 -130 44l5 35c51 12 96 31 133 56c46 31 69 66 69 104c0 31 -13 57 -38 76c-23 17 -49 25 -80 25c-65 0 -98 -24 -98 -71c0 -23 6 -40 18 -52l-33 -23c-23 17 -34 45 -34 83c0 37 16 68 48 93c33 25 73 38 122 38
c53 0 97 -12 131 -35c35 -25 53 -59 53 -101z" />
    <glyph glyph-name="four" unicode="4" 
d="M560 298l-11 -71h-147l-22 -137c-1 -5 -1 -9 -1 -13c0 -19 9 -31 26 -36c7 -2 22 -3 45 -3l-6 -38c-7 0 -25 0 -52 1s-50 1 -68 1c-17 0 -41 0 -70 -1s-48 -1 -56 -1l6 38c26 0 44 2 53 5c21 7 34 22 38 47l22 137h-315l6 41l432 424h36l-63 -394h147zM369 557l-271 -259
h230z" />
    <glyph glyph-name="five" unicode="5" 
d="M561 682l-13 -80h-321l-24 -126c66 -6 126 -23 179 -50c85 -45 128 -110 128 -195c0 -77 -26 -137 -79 -182c-48 -39 -107 -59 -176 -59c-58 0 -106 16 -145 49c-28 23 -47 49 -56 77l33 38c9 -27 29 -51 59 -72c34 -23 72 -35 115 -35s79 13 106 40c30 29 45 72 45 128
c0 105 -90 166 -271 183l50 284h370z" />
    <glyph glyph-name="six" unicode="6" 
d="M602 691l-11 -51c-30 7 -63 10 -98 10c-84 0 -154 -28 -210 -83c-44 -44 -75 -102 -94 -174c39 34 89 51 150 51c116 0 191 -74 191 -193c0 -73 -22 -133 -66 -182c-47 -53 -109 -79 -187 -79c-69 0 -121 26 -156 78c-32 46 -48 109 -48 189c0 137 42 248 126 332
c75 75 177 113 304 113c41 0 74 -4 99 -11zM435 219c0 110 -43 165 -128 165c-57 0 -101 -13 -131 -40c-10 -31 -15 -70 -15 -118c0 -56 10 -100 30 -133c21 -36 53 -54 95 -54c93 0 149 68 149 180z" />
    <glyph glyph-name="seven" unicode="7" 
d="M564 682l-7 -43l-467 -661l-50 26l417 594h-349l14 84h442z" />
    <glyph glyph-name="eight" unicode="8" 
d="M557 557c0 -49 -22 -92 -65 -128c-31 -25 -68 -44 -111 -58c101 -45 152 -101 152 -166c0 -63 -24 -114 -71 -155c-47 -40 -110 -60 -187 -60c-65 0 -118 15 -158 44c-39 30 -59 69 -59 117c0 57 24 105 71 145c28 24 61 43 98 56c-74 45 -111 102 -111 173
c0 57 24 101 72 134c43 29 97 43 162 43c125 0 207 -50 207 -145zM475 540c0 67 -48 113 -128 113c-42 0 -76 -9 -101 -26c-28 -20 -42 -49 -42 -87c0 -35 19 -69 57 -100c27 -23 52 -38 76 -45c92 29 138 78 138 145zM442 172c0 36 -21 69 -62 99c-21 15 -58 34 -111 58
c-87 -31 -131 -84 -131 -159c0 -37 14 -69 43 -94s66 -37 109 -37c92 0 152 46 152 133z" />
    <glyph glyph-name="nine" unicode="9" 
d="M530 449c0 -154 -43 -272 -130 -353c-75 -71 -175 -106 -300 -106c-35 0 -68 4 -99 13l12 51c38 -8 71 -12 98 -12c85 0 155 27 210 81c38 37 68 95 90 176c-41 -34 -92 -51 -153 -51c-56 0 -101 19 -135 57c-34 39 -51 89 -51 150c0 70 22 128 65 174
c45 49 105 73 178 73c69 0 122 -24 160 -72c37 -45 55 -106 55 -181zM435 464c0 112 -46 189 -127 189c-89 0 -141 -65 -141 -178c0 -49 10 -89 31 -120c22 -33 53 -49 93 -49c57 0 101 14 132 42c8 27 12 66 12 116z" />
    <glyph glyph-name="colon" unicode=":" horiz-adv-x="223" 
d="M196 421c-4 -33 -29 -56 -60 -56c-33 0 -47 19 -42 56c4 32 30 57 59 57c33 0 48 -19 43 -57zM140 46c-4 -33 -29 -56 -60 -56c-33 0 -47 19 -42 56c4 32 30 57 59 57c33 0 48 -19 43 -57z" />
    <glyph glyph-name="semicolon" unicode=";" horiz-adv-x="233" 
d="M196 421c-4 -33 -29 -56 -60 -56c-33 0 -47 19 -42 56c4 32 30 57 59 57c33 0 48 -19 43 -57zM163 33c0 -39 -14 -73 -43 -100c-31 -29 -71 -48 -118 -56l-23 36c74 19 111 43 111 71c0 10 -7 21 -20 34s-20 25 -20 38c0 33 18 49 53 49c36 0 60 -29 60 -72z" />
    <glyph glyph-name="less" unicode="&#x3c;" horiz-adv-x="527" 
d="M492 0l-456 204v66l456 204v-66l-382 -171l382 -171v-66z" />
    <glyph glyph-name="equal" unicode="=" horiz-adv-x="527" 
d="M513 368l-11 -64h-456l11 64h456zM482 172l-11 -64h-456l11 64h456z" />
    <glyph glyph-name="greater" unicode="&#x3e;" horiz-adv-x="527" 
d="M492 204l-456 -204v66l382 171l-382 171v66l456 -204v-66z" />
    <glyph glyph-name="question" unicode="?" horiz-adv-x="477" 
d="M468 520c0 -119 -65 -200 -195 -243c-32 -10 -64 -20 -96 -31c-20 -8 -30 -19 -30 -34c0 -16 10 -28 30 -37l-36 -20c-24 12 -46 49 -46 89c0 29 14 50 41 63c0 0 44 15 131 44c101 35 134 71 134 134c0 37 -15 69 -44 95c-29 27 -66 40 -109 40c-37 0 -69 -10 -95 -30
c-9 -6 -20 -18 -35 -37l-20 33c11 22 29 43 54 62c38 29 81 44 130 44c57 0 102 -17 137 -51c33 -33 49 -73 49 -121zM195 46c-4 -33 -29 -56 -60 -56c-33 0 -47 19 -42 56c4 32 30 57 59 57c33 0 48 -19 43 -57z" />
    <glyph glyph-name="at" unicode="@" horiz-adv-x="841" 
d="M806 418c0 -90 -27 -160 -81 -209c-46 -42 -101 -63 -166 -63c-51 0 -77 21 -77 64c0 17 4 40 11 71c-16 -34 -40 -64 -71 -90c-35 -29 -67 -43 -98 -43c-61 0 -92 33 -92 100c0 61 17 120 51 176c42 69 97 104 166 104c42 0 79 -10 111 -29c9 6 18 15 27 28h38
c-35 -94 -61 -188 -78 -281c-1 -7 -2 -14 -2 -21c0 -30 15 -45 44 -45c41 0 75 16 101 49c31 38 46 94 46 169c0 91 -27 158 -81 203c-50 41 -121 62 -212 62c-95 0 -173 -36 -234 -109c-57 -67 -85 -147 -85 -240c0 -98 28 -173 83 -224c45 -42 101 -63 168 -63
c73 0 132 12 175 37l14 -26c-56 -37 -127 -55 -213 -55c-83 0 -153 26 -210 79c-63 59 -95 139 -95 241c0 122 40 219 120 292c77 71 175 106 296 106c98 0 178 -22 240 -67c69 -51 104 -123 104 -216zM529 466c-17 16 -40 24 -69 24c-55 0 -97 -35 -126 -106
c-18 -45 -27 -84 -27 -119c0 -23 1 -37 2 -42c5 -22 17 -33 36 -33c37 0 74 31 111 94c30 51 54 112 73 182z" />
    <glyph glyph-name="A" unicode="A" horiz-adv-x="702" 
d="M680 38l-6 -38c-8 0 -25 0 -52 1c-26 1 -48 1 -65 1s-39 0 -66 -1c-26 -1 -43 -1 -51 -1l6 38c47 3 61 11 61 42c0 11 -3 30 -8 57l-25 126h-246l-67 -129c-13 -25 -20 -45 -20 -60c0 -24 21 -36 62 -36l-5 -38c-8 0 -24 0 -48 1c-23 1 -44 1 -61 1s-38 0 -61 -1
s-39 -1 -46 -1l5 38c29 -1 51 7 66 23c9 9 24 33 45 72l295 550h73l128 -543c11 -45 20 -73 28 -83c10 -13 29 -19 58 -19zM464 309l-65 283l-148 -283h213z" />
    <glyph glyph-name="B" unicode="B" 
d="M567 200c0 -57 -25 -105 -75 -144s-113 -58 -188 -58c-77 0 -149 3 -172 3h-69c-28 -1 -44 -1 -48 -1l6 38c24 0 40 2 48 5c17 7 28 22 32 47l77 502c1 5 1 9 1 13c0 19 -8 31 -24 36c-8 3 -25 4 -51 4l6 38h56c29 -1 53 -1 70 -1c14 0 33 0 58 1h67
c121 0 196 -56 196 -145c0 -51 -22 -93 -66 -128c-27 -21 -58 -37 -91 -46c111 -25 167 -79 167 -164zM465 525c0 76 -43 114 -128 114c-27 0 -49 -1 -68 -2l-40 -255c1 0 9 0 26 -1s32 -1 44 -1c54 0 96 15 126 45c27 26 40 59 40 100zM472 194c0 95 -71 142 -184 142h-66
l-32 -217c-7 -51 32 -76 119 -76c43 0 79 12 110 35c35 28 53 67 53 116z" />
    <glyph glyph-name="C" unicode="C" horiz-adv-x="652" 
d="M685 675c-3 -16 -8 -42 -15 -79c-3 -19 -6 -44 -9 -75h-38c3 11 4 21 4 30c0 58 -49 87 -147 87c-103 0 -182 -37 -239 -111c-49 -65 -74 -145 -74 -242c0 -74 21 -133 64 -177s100 -66 169 -66c107 0 150 25 161 106h38c-3 -13 -7 -36 -12 -69l-9 -69
c-11 -1 -38 -4 -79 -9c-37 -5 -74 -8 -111 -8c-98 0 -176 26 -233 78s-86 122 -86 210c0 123 38 222 115 295c77 74 177 111 300 111c34 0 69 -2 106 -6c39 -5 60 -7 63 -7c9 0 19 0 32 1z" />
    <glyph glyph-name="D" unicode="D" horiz-adv-x="803" 
d="M740 396c0 -113 -35 -206 -104 -279c-78 -81 -183 -122 -316 -122c-23 0 -57 1 -103 3s-76 3 -91 3h-66c-26 -1 -43 -1 -51 -1l6 38c23 0 39 2 47 5c18 7 29 22 33 47l80 503c1 4 1 8 1 12c0 19 -9 32 -27 37c-8 2 -24 3 -48 3l6 38h56c30 -1 54 -1 71 -1c14 0 39 0 74 1
c36 1 68 1 95 1c104 0 186 -25 246 -75c61 -50 91 -121 91 -213zM642 391c0 82 -25 144 -76 186c-47 39 -111 59 -194 59c-40 0 -76 -2 -107 -7l-79 -498c-1 -7 -2 -13 -2 -18c0 -32 17 -52 52 -61c15 -4 49 -6 101 -6c95 0 170 32 225 96c53 62 80 145 80 249z" />
    <glyph glyph-name="E" unicode="E" horiz-adv-x="579" 
d="M574 685c-3 -12 -7 -34 -13 -67c-3 -19 -6 -41 -9 -68h-38c2 13 3 23 3 31c0 24 -10 39 -30 46c-15 5 -50 8 -105 8c-38 0 -77 -1 -117 -2l-40 -259h95c53 0 87 3 100 9c16 8 27 29 32 62h38c-3 -17 -10 -50 -19 -100c-3 -23 -7 -57 -13 -101h-38c3 15 4 28 4 37
c0 21 -8 35 -24 42c-13 5 -41 7 -85 7h-97l-34 -211c-1 -10 -2 -19 -2 -26c0 -21 9 -34 26 -39c12 -3 42 -5 91 -5c65 0 108 4 128 13c29 13 48 43 55 90h38c-3 -15 -8 -41 -14 -76c-3 -19 -6 -44 -10 -76l-368 2c-17 0 -40 0 -67 -1s-45 -1 -53 -1l6 38c24 0 40 2 48 5
c18 7 29 22 33 47l79 503c1 5 1 9 1 13c0 19 -8 31 -25 36c-7 2 -24 3 -51 3l5 38h57c30 -1 54 -1 71 -1c14 0 39 0 75 1h93c77 0 135 1 174 2z" />
    <glyph glyph-name="F" unicode="F" horiz-adv-x="561" 
d="M615 685c-3 -14 -7 -36 -12 -67c-3 -17 -6 -40 -9 -68h-38c2 12 3 22 3 31c0 24 -10 39 -30 46c-16 5 -51 8 -106 8c-40 0 -80 -1 -120 -2l-42 -265h95c55 0 88 3 100 9c17 7 28 28 33 62h38c-3 -17 -9 -50 -18 -100c-3 -23 -7 -57 -14 -101h-38c2 15 3 26 3 35
c0 23 -8 37 -24 43c-13 5 -42 8 -86 8h-96l-37 -234c-1 -5 -1 -9 -1 -13c0 -19 9 -31 27 -36c7 -2 25 -3 53 -3l-6 -38c-8 0 -27 0 -56 1s-53 1 -70 1s-39 0 -65 -1s-43 -1 -51 -1l6 38c23 0 39 2 47 5c17 7 28 22 32 47l81 503c1 5 1 10 1 14c0 19 -8 30 -24 35
c-7 2 -24 3 -51 3l5 38h57c30 -1 54 -1 71 -1c14 0 39 0 76 1h94c77 0 135 1 172 2z" />
    <glyph glyph-name="G" unicode="G" horiz-adv-x="737" 
d="M721 675c-3 -8 -8 -33 -15 -74c-5 -31 -8 -56 -10 -75h-38c2 11 3 21 3 30c0 28 -11 48 -34 61c-25 14 -68 21 -129 21c-100 0 -180 -32 -240 -96c-59 -63 -89 -146 -89 -247c0 -88 25 -154 76 -198c44 -39 103 -58 178 -58c44 0 77 4 100 12l22 140c1 5 1 9 1 13
c0 19 -9 31 -26 36c-8 2 -26 3 -53 3l7 38c8 0 26 0 55 -1s52 -1 69 -1s39 0 66 1s44 1 52 1l-7 -38c-24 0 -40 -2 -48 -5c-17 -7 -28 -22 -32 -47l-28 -181c-95 -13 -159 -20 -191 -20c-212 0 -337 109 -337 289c0 131 40 232 121 304c77 69 181 104 314 104
c41 0 79 -2 115 -6s60 -6 71 -6h27z" />
    <glyph glyph-name="H" unicode="H" horiz-adv-x="794" 
d="M815 683l-5 -38c-24 0 -40 -2 -48 -5c-17 -7 -28 -22 -32 -47l-77 -503c-1 -5 -1 -9 -1 -13c0 -19 8 -31 23 -36c7 -2 21 -3 42 -3l-5 -38c-8 0 -25 0 -51 1c-25 1 -47 1 -64 1s-39 0 -64 -1s-42 -1 -50 -1l6 38c24 0 40 2 48 5c17 7 28 22 32 47l36 238h-382l-36 -238
c-1 -5 -1 -9 -1 -14c0 -18 8 -30 23 -35c6 -2 20 -3 42 -3l-6 -38c-8 0 -25 0 -50 1s-47 1 -64 1s-39 0 -64 -1s-42 -1 -50 -1l5 38c24 0 40 2 48 5c17 7 28 22 32 47l77 503c1 5 1 9 1 13c0 19 -8 31 -23 36c-7 2 -21 3 -42 3l5 38c8 0 25 0 50 -1c26 -1 48 -1 65 -1
s39 0 64 1s42 1 50 1l-6 -38c-24 0 -40 -2 -48 -5c-17 -7 -28 -22 -32 -47l-33 -219h382l33 219c1 5 1 9 1 14c0 18 -8 30 -23 35c-6 2 -20 3 -42 3l6 38c8 0 25 0 51 -1s48 -1 65 -1c18 0 39 0 64 1s41 1 48 1z" />
    <glyph glyph-name="I" unicode="I" horiz-adv-x="327" 
d="M353 683l-6 -38c-23 0 -39 -2 -47 -5c-18 -7 -29 -22 -33 -47l-80 -503c-1 -5 -1 -10 -1 -14c0 -18 8 -30 23 -35c6 -2 20 -3 42 -3l-6 -38c-8 0 -25 0 -50 1s-47 1 -64 1s-39 0 -64 -1s-42 -1 -50 -1l6 38c23 0 39 2 47 5c18 7 29 22 33 47l80 503c1 5 1 9 1 14
c0 18 -8 30 -23 35c-7 2 -21 3 -42 3l6 38c8 0 25 0 50 -1s47 -1 64 -1s39 0 64 1s42 1 50 1z" />
    <glyph glyph-name="J" unicode="J" horiz-adv-x="309" 
d="M340 683l-6 -38c-23 0 -39 -2 -47 -5c-18 -7 -29 -22 -33 -47l-71 -447c-13 -84 -38 -152 -75 -205c-21 -30 -50 -58 -87 -84c-31 -21 -58 -36 -82 -44l-15 29c53 29 94 74 125 136c22 45 39 105 51 178l70 437c1 5 1 9 1 13c0 19 -9 31 -26 36c-8 2 -26 3 -53 3l6 38
c8 0 26 0 55 -1s53 -1 70 -1s39 0 65 1c27 1 44 1 52 1z" />
    <glyph glyph-name="K" unicode="K" horiz-adv-x="654" 
d="M698 683l-6 -36c-20 0 -37 -3 -50 -9c-22 -10 -52 -32 -90 -66l-227 -203l205 -253c28 -35 49 -57 62 -67c9 -7 20 -11 33 -11l-6 -38c-8 0 -24 0 -48 1c-23 1 -44 1 -61 1s-39 0 -66 -1s-44 -1 -52 -1l6 38c35 0 52 7 52 20c0 7 -5 17 -14 29l-205 260l258 233
c14 13 21 24 21 35c0 20 -17 30 -50 30l6 38c8 0 25 0 51 -1s48 -1 65 -1s39 0 65 1s43 1 51 1zM352 683l-6 -38c-23 0 -39 -2 -47 -5c-18 -7 -29 -22 -33 -47l-80 -503c-1 -5 -1 -10 -1 -14c0 -18 8 -30 23 -35c6 -2 20 -3 42 -3l-6 -38c-8 0 -25 0 -50 1s-47 1 -64 1
s-39 0 -64 -1s-42 -1 -50 -1l6 38c23 0 39 2 47 5c18 7 29 22 33 47l80 503c1 5 1 9 1 14c0 18 -8 30 -23 35c-7 2 -21 3 -42 3l6 38c8 0 25 0 50 -1s47 -1 64 -1s39 0 64 1s42 1 50 1z" />
    <glyph glyph-name="L" unicode="L" horiz-adv-x="512" 
d="M484 151c-3 -16 -8 -42 -14 -77c-3 -19 -6 -43 -10 -74l-336 2c-18 0 -41 0 -68 -1s-45 -1 -54 -1l6 38c25 0 41 2 49 5c19 7 30 22 34 47l80 503c1 5 1 9 1 14c0 18 -8 30 -24 35c-7 2 -21 3 -44 3l6 38c9 0 26 0 52 -1c27 -1 49 -1 67 -1c19 0 41 0 67 1
c27 1 44 1 52 1l-6 -38c-25 0 -41 -2 -49 -5c-19 -7 -30 -22 -34 -47l-75 -475c-1 -9 -2 -17 -2 -24c0 -22 9 -36 28 -41c13 -3 45 -5 96 -5c49 0 83 7 102 21s31 41 38 82h38z" />
    <glyph glyph-name="M" unicode="M" horiz-adv-x="897" 
d="M917 683l-6 -38c-30 0 -49 -3 -58 -8c-15 -10 -26 -34 -32 -72l-75 -475c-1 -5 -1 -10 -1 -14c0 -18 8 -30 23 -35c6 -2 20 -3 42 -3l-6 -38c-8 0 -25 0 -50 1s-47 1 -64 1s-39 0 -65 -1c-25 -1 -42 -1 -50 -1l6 38c23 0 39 2 47 5c18 7 29 22 33 47l75 469l-305 -559
h-65l-143 503l-64 -402c-1 -6 -1 -11 -1 -16c0 -31 23 -47 68 -47l-6 -38c-39 1 -73 2 -103 2c-17 0 -37 0 -59 -1c-21 -1 -36 -1 -44 -1l6 38c22 0 38 3 48 8c18 9 29 27 34 55l73 464c1 11 2 20 2 28c0 22 -7 37 -21 44c-11 5 -31 8 -61 8l6 38c26 -1 54 -1 84 -1
s58 0 83 1l163 -576l311 576c30 -1 60 -1 90 -1s58 0 85 1z" />
    <glyph glyph-name="N" unicode="N" horiz-adv-x="766" 
d="M795 683l-6 -38c-47 0 -74 -22 -81 -66l-92 -579h-49l-337 565l-73 -461c-1 -6 -1 -11 -1 -16c0 -21 9 -36 26 -43c11 -5 28 -7 52 -7l-6 -38c-39 1 -76 2 -113 2c-17 0 -37 0 -59 -1c-21 -1 -36 -1 -44 -1l6 38c47 0 75 22 82 66l73 458c2 12 3 22 3 31
c0 22 -7 37 -21 44c-11 5 -31 8 -62 8l6 38c27 -1 56 -1 86 -1s60 0 91 1l307 -531l68 427c1 6 1 11 1 16c0 21 -9 36 -26 43c-11 5 -28 7 -52 7l6 38c39 -1 76 -2 113 -2c18 0 38 0 59 1s36 1 43 1z" />
    <glyph glyph-name="O" unicode="O" horiz-adv-x="842" 
d="M788 419c0 -120 -35 -221 -104 -302c-76 -89 -179 -134 -309 -134c-87 0 -157 26 -210 77s-79 119 -79 204c0 125 35 228 106 308c76 86 180 129 311 129c95 0 168 -27 218 -81c45 -49 67 -116 67 -201zM687 417c0 155 -66 233 -197 233c-97 0 -172 -36 -225 -109
c-52 -70 -78 -164 -78 -283c0 -64 15 -115 44 -154c35 -47 89 -70 162 -70c84 0 154 35 210 105c56 71 84 163 84 278z" />
    <glyph glyph-name="P" unicode="P" horiz-adv-x="579" 
d="M584 522c0 -71 -25 -129 -74 -174s-114 -67 -195 -67c-29 0 -56 4 -82 11l7 41c23 -8 49 -12 80 -12c55 0 97 19 128 57c27 34 41 78 41 133c0 39 -11 69 -34 92c-25 24 -60 36 -105 36c-37 0 -62 -1 -77 -3l-86 -546c-1 -5 -1 -9 -1 -13c0 -19 8 -31 25 -36
c8 -2 25 -3 52 -3l-6 -38c-7 0 -25 0 -54 1c-28 1 -51 1 -69 1c-17 0 -39 0 -66 -1s-44 -1 -52 -1l6 38c23 0 39 2 48 5c18 7 29 22 33 47l79 503c1 5 1 9 1 14c0 19 -8 30 -24 35c-7 2 -24 3 -50 3l6 38h56c29 -1 53 -1 70 -1c11 0 28 0 51 1h93c60 0 108 -15 144 -46
c37 -30 55 -68 55 -115z" />
    <glyph glyph-name="Q" unicode="Q" horiz-adv-x="842" 
d="M850 -144c-40 -27 -81 -40 -123 -40c-38 0 -82 12 -131 36c-20 9 -63 33 -129 72c-52 31 -93 51 -122 60c-6 1 -14 2 -25 4c-144 21 -234 127 -234 276c0 125 35 228 106 308c76 86 180 129 311 129c95 0 168 -27 218 -81c45 -49 67 -116 67 -201
c0 -104 -27 -194 -80 -271c-57 -81 -134 -132 -231 -154c2 -1 54 -25 156 -74c67 -32 115 -48 142 -48c25 0 45 6 59 17zM687 417c0 155 -66 233 -197 233c-97 0 -172 -36 -225 -109c-52 -70 -78 -164 -78 -283c0 -64 15 -115 44 -154c35 -47 89 -70 162 -70
c84 0 154 35 210 105c56 71 84 163 84 278z" />
    <glyph glyph-name="R" unicode="R" horiz-adv-x="645" 
d="M664 38l-6 -38c-11 -3 -27 -4 -48 -4c-35 0 -66 10 -94 30c-52 36 -119 128 -188 265c-21 0 -39 0 -53 1c-13 1 -32 2 -56 4l-33 -206c-1 -5 -1 -10 -1 -14c0 -18 8 -30 23 -35c6 -2 20 -3 42 -3l-6 -38c-8 0 -25 0 -50 1s-47 1 -64 1s-39 0 -64 -1s-42 -1 -50 -1l6 38
c23 0 39 2 47 5c18 7 29 22 33 47l80 503c1 5 1 9 1 14c0 18 -8 30 -24 35c-7 2 -24 3 -51 3l6 38h56c30 -1 54 -1 71 -1c15 0 38 0 69 1h75c59 0 107 -15 142 -45c35 -29 53 -66 53 -110c0 -96 -55 -169 -166 -218c16 -30 47 -77 93 -140c64 -88 112 -132 143 -132h14z
M485 517c0 81 -45 122 -135 122c-37 0 -62 -1 -77 -3l-48 -296c9 -1 27 -3 54 -5c20 -1 38 -1 55 0c38 0 73 17 104 52s47 79 47 130z" />
    <glyph glyph-name="S" unicode="S" horiz-adv-x="523" 
d="M500 667c-3 -13 -7 -37 -13 -71c-3 -19 -6 -42 -9 -71h-36c1 9 2 17 2 25c0 60 -42 90 -126 90c-99 0 -149 -38 -149 -113c0 -35 13 -63 39 -85c14 -12 46 -30 97 -54c54 -26 91 -47 110 -64c35 -31 53 -69 53 -115c0 -58 -22 -107 -67 -148c-48 -44 -110 -66 -185 -66
c-37 0 -72 5 -106 14c-33 9 -54 14 -61 14h-20c3 15 6 41 10 76c1 19 3 44 6 76h37c-1 -7 -1 -14 -1 -21c0 -75 47 -112 140 -112c99 0 161 52 161 132c0 35 -12 65 -37 88c-20 19 -53 38 -100 58c-49 21 -85 43 -108 64c-32 31 -48 69 -48 116c0 61 24 108 71 142
c42 30 95 45 159 45c31 0 63 -3 98 -10s57 -10 65 -10h18z" />
    <glyph glyph-name="T" unicode="T" horiz-adv-x="580" 
d="M654 685c-3 -16 -8 -42 -14 -77c-3 -19 -6 -44 -11 -77h-38c2 14 3 26 3 36c0 51 -26 65 -106 65c-53 0 -87 -1 -103 -2l-86 -540c-1 -5 -1 -9 -1 -13c0 -19 9 -31 26 -36c7 -2 25 -3 52 -3l-6 -38c-8 0 -27 0 -57 1s-54 1 -71 1s-41 0 -71 -1c-29 -1 -48 -1 -56 -1l6 38
c29 0 49 2 58 5c21 7 33 22 37 47l85 540c-14 1 -47 2 -100 2c-47 0 -80 -7 -99 -20c-18 -13 -30 -40 -37 -81h-38c3 15 8 41 15 77c3 19 6 44 10 77c89 -3 188 -4 299 -4s212 1 303 4z" />
    <glyph glyph-name="U" unicode="U" horiz-adv-x="766" 
d="M798 683l-6 -38c-22 0 -38 -3 -48 -8c-17 -9 -28 -27 -33 -55l-55 -350c-25 -163 -132 -245 -319 -245c-71 0 -128 15 -170 44c-45 31 -68 77 -68 137c0 13 1 27 3 42l61 383c1 5 1 10 1 14c0 18 -8 30 -23 35c-6 2 -20 3 -42 3l6 38c8 0 25 0 50 -1s47 -1 64 -1
c18 0 40 0 65 1s42 1 49 1l-6 -38c-23 0 -39 -2 -47 -5c-18 -7 -29 -22 -33 -47l-56 -353c-3 -16 -4 -31 -4 -45c0 -98 60 -147 180 -147c135 0 212 64 232 192l54 342c1 6 1 11 1 16c0 31 -22 47 -67 47l6 38c37 -1 71 -2 102 -2c17 0 37 0 58 1c22 1 37 1 45 1z" />
    <glyph glyph-name="V" unicode="V" horiz-adv-x="589" 
d="M696 683l-5 -38c-29 1 -51 -7 -66 -23c-9 -9 -24 -33 -45 -72l-295 -550h-61l-124 543c-10 45 -20 73 -29 84c-9 12 -28 18 -57 18l6 38c8 0 25 0 51 -1s48 -1 65 -1s39 0 65 1s43 1 51 1l-6 -38c-47 -3 -62 -11 -62 -42c0 -12 3 -31 9 -57l96 -438l228 441
c13 25 20 45 20 60c0 24 -21 36 -62 36l5 38c8 0 24 0 47 -1c24 -1 45 -1 62 -1c18 0 38 0 61 1s39 1 46 1z" />
    <glyph glyph-name="W" unicode="W" horiz-adv-x="991" 
d="M1096 683l-5 -38c-29 1 -51 -7 -66 -23c-9 -9 -24 -33 -45 -72l-295 -550h-61l-104 450l-235 -450h-61l-124 543c-10 45 -20 73 -29 84c-9 12 -28 18 -57 18l6 38c8 0 25 0 51 -1s48 -1 65 -1s39 0 65 1s43 1 51 1l-6 -38c-47 -3 -62 -11 -62 -42c0 -12 3 -31 9 -57
l96 -438l215 416l-4 19c-9 45 -19 73 -28 84c-9 12 -29 18 -58 18l6 38c8 0 25 0 51 -1s48 -1 65 -1s39 0 65 1s43 1 51 1l-6 -38c-47 -3 -62 -11 -62 -42c0 -12 3 -31 9 -57l96 -438l228 441c13 25 20 45 20 60c0 24 -21 36 -62 36l5 38c8 0 24 0 47 -1c24 -1 45 -1 62 -1
c18 0 38 0 61 1s39 1 46 1z" />
    <glyph glyph-name="X" unicode="X" horiz-adv-x="730" 
d="M744 683l-6 -36c-41 0 -83 -24 -128 -73l-182 -199l146 -261c33 -60 55 -76 96 -75l-6 -39c-7 0 -23 0 -47 1s-45 1 -63 1c-13 0 -35 0 -65 -1c-23 -1 -40 -1 -51 0l6 37c33 -1 49 10 49 31c0 8 -3 16 -8 25l-119 211l-174 -190c-16 -17 -25 -31 -26 -41
c-4 -25 14 -37 55 -37l-6 -37c-10 0 -26 0 -49 1c-27 1 -49 1 -64 1c-28 -1 -66 -1 -114 -1l6 35c41 0 83 24 128 73l220 241l-127 219c-17 29 -31 49 -42 59c-14 12 -31 18 -51 17l6 38h48c24 -1 45 -1 62 -1c18 0 40 0 66 1h52l-7 -38c-33 1 -50 -10 -50 -31
c0 -8 3 -17 8 -26l96 -170l137 150c15 16 23 30 25 41c5 24 -13 36 -54 36l6 38c10 1 26 0 49 -1c27 -1 49 -1 64 -1c17 0 38 0 63 1s42 1 51 1z" />
    <glyph glyph-name="Y" unicode="Y" horiz-adv-x="570" 
d="M695 682l-6 -35c-41 0 -83 -24 -128 -73l-216 -235l-39 -249c-1 -5 -1 -9 -1 -13c0 -19 9 -31 26 -36c7 -2 25 -3 52 -3l-6 -38c-8 0 -27 0 -57 1s-54 1 -71 1s-41 0 -71 -1c-29 -1 -48 -1 -56 -1l6 38c29 0 48 2 57 5c20 7 32 22 36 47l36 215l-148 264
c-33 60 -55 76 -96 75l6 39c8 0 24 0 48 -1s45 -1 62 -1c13 0 35 0 65 1c23 1 40 1 51 0l-6 -37c-33 1 -49 -10 -49 -31c0 -8 3 -16 8 -25l119 -211l174 190c16 17 25 31 26 41c4 25 -14 37 -55 37l6 37c8 0 24 0 49 -1s47 -1 64 -1c13 0 35 0 64 1c23 1 39 1 50 0z" />
    <glyph glyph-name="Z" unicode="Z" horiz-adv-x="617" 
d="M641 683l-6 -38l-476 -592h247c52 0 87 6 104 18c18 13 30 40 37 81h37c-3 -15 -7 -41 -14 -76c-3 -19 -7 -44 -10 -76c-62 0 -150 0 -264 1s-176 1 -187 1c-3 0 -30 -1 -81 -2l6 38l475 592h-215c-55 0 -90 -4 -103 -13c-17 -10 -28 -37 -35 -82h-37c3 15 7 40 13 75
c3 19 6 44 10 75c75 -1 210 -2 405 -3c37 0 69 0 94 1z" />
    <glyph glyph-name="bracketleft" unicode="[" horiz-adv-x="288" 
d="M326 766l-6 -40h-93l-146 -920h92l-6 -40h-167l158 1000h168z" />
    <glyph glyph-name="backslash" unicode="\" horiz-adv-x="386" 
d="M293 -171l-60 -11l-175 941l60 12z" />
    <glyph glyph-name="bracketright" unicode="]" horiz-adv-x="288" 
d="M270 766l-158 -1000h-167l6 40h92l146 920h-93l6 40h168z" />
    <glyph glyph-name="asciicircum" unicode="^" horiz-adv-x="500" 
d="M487 292h-66l-171 397l-171 -397h-66l204 474h66z" />
    <glyph glyph-name="underscore" unicode="_" horiz-adv-x="500" 
d="M500 -50l-8 -50h-492l8 50h492z" />
    <glyph glyph-name="quoteleft" unicode="&#x2018;" horiz-adv-x="252" 
d="M318 733c-74 -19 -111 -43 -111 -71c0 -10 7 -21 20 -34s20 -25 20 -38c0 -33 -18 -49 -53 -49c-36 0 -60 29 -60 72c0 39 14 73 43 100c31 29 71 48 118 56z" />
    <glyph glyph-name="a" unicode="a" horiz-adv-x="533" 
d="M514 477c-16 -28 -38 -96 -65 -203c-25 -100 -39 -164 -41 -191c-2 -28 5 -42 21 -42c19 0 38 8 56 23l16 -29c-31 -25 -68 -38 -111 -38c-42 0 -63 17 -63 51c0 29 10 74 29 134c-19 -41 -46 -80 -79 -115c-49 -51 -100 -76 -152 -76c-59 0 -89 45 -89 134
c0 69 18 137 55 205c53 98 132 147 237 147c49 0 87 -10 115 -30l31 30h40zM406 397c-17 22 -49 33 -96 33c-58 0 -106 -39 -143 -117c-31 -66 -47 -129 -47 -190c0 -55 14 -82 42 -82c45 0 96 49 155 148c50 85 80 155 89 208z" />
    <glyph glyph-name="b" unicode="b" horiz-adv-x="533" 
d="M497 337c0 -83 -22 -158 -66 -224c-54 -81 -130 -122 -227 -122c-80 0 -145 22 -165 53c26 104 48 196 67 275c46 189 71 300 75 332c1 9 2 16 2 22c0 29 -14 37 -69 37l6 38c38 0 80 6 126 19h38c-3 -38 -20 -119 -51 -244c-29 -115 -53 -200 -70 -253
c19 49 47 93 83 131c48 51 100 76 155 76c40 0 67 -16 82 -48c9 -21 14 -51 14 -92zM409 323c0 29 -2 50 -7 63c-8 21 -24 32 -47 32c-47 0 -98 -48 -152 -143c-49 -84 -75 -154 -80 -211c23 -21 59 -31 108 -31c57 0 102 36 137 108c27 57 41 118 41 182z" />
    <glyph glyph-name="c" unicode="c" horiz-adv-x="439" 
d="M461 420l-52 -55c-33 42 -73 63 -120 63c-42 0 -77 -19 -105 -57c-39 -54 -59 -122 -59 -203c0 -84 34 -126 102 -126c51 0 92 27 123 80l23 -30c-14 -29 -35 -53 -64 -71c-32 -20 -68 -30 -107 -30c-49 0 -87 13 -116 39c-32 29 -48 71 -48 128c0 102 33 184 99 247
c50 48 108 72 175 72c66 0 116 -19 149 -57z" />
    <glyph glyph-name="d" unicode="d" horiz-adv-x="533" 
d="M587 767c-9 -75 -47 -214 -114 -419c-40 -122 -62 -210 -65 -265c-2 -28 5 -42 21 -42c19 0 38 8 56 23l16 -29c-31 -25 -68 -38 -111 -38c-42 0 -63 17 -63 51c0 29 10 74 29 134c-19 -41 -46 -80 -79 -115c-49 -51 -100 -76 -152 -76c-59 0 -89 45 -89 134
c0 69 18 137 55 205c53 98 132 147 237 147c42 0 75 -9 99 -26l59 222c0 29 -14 37 -69 37l6 38c38 0 80 6 126 19h38zM406 397c-17 22 -49 33 -96 33c-58 0 -106 -39 -143 -117c-31 -66 -47 -129 -47 -190c0 -55 14 -82 42 -82c45 0 96 49 155 148c50 85 80 155 89 208z
" />
    <glyph glyph-name="e" unicode="e" horiz-adv-x="430" 
d="M435 379c0 -48 -28 -83 -85 -104c-40 -15 -88 -23 -145 -23c-24 0 -49 1 -74 4c-8 -29 -12 -61 -12 -96c0 -79 36 -118 108 -118c51 0 92 27 123 80l23 -30c-31 -67 -91 -101 -181 -101c-105 0 -158 56 -158 168c0 45 9 91 27 137c19 46 43 84 74 113
c47 45 104 68 170 68c45 0 78 -10 101 -31c19 -17 29 -39 29 -67zM352 380c0 12 -5 23 -14 34c-11 13 -27 19 -47 19c-69 0 -119 -47 -149 -141c75 -6 128 -2 159 12c34 15 51 40 51 76z" />
    <glyph glyph-name="f" unicode="f" horiz-adv-x="328" 
d="M564 726l-52 -53c-37 22 -72 33 -107 33c-46 0 -82 -19 -107 -56s-45 -101 -58 -192h142l-8 -47h-141c-9 -56 -26 -144 -51 -264c-21 -89 -38 -148 -51 -179c-23 -55 -59 -103 -107 -144c-45 -39 -97 -58 -154 -58c-41 0 -68 9 -80 26l44 60c18 -9 45 -14 80 -14
c39 0 69 11 90 32c25 24 46 67 63 130c12 43 28 115 48 216s32 166 35 195h-104l8 47h105c13 104 48 183 106 238c51 47 110 71 177 71c59 0 100 -14 122 -41z" />
    <glyph glyph-name="g" unicode="g" horiz-adv-x="498" 
d="M523 459l-6 -38h-91c17 -23 26 -55 26 -94c0 -58 -24 -106 -72 -144s-100 -57 -156 -57h-39c-43 -7 -64 -21 -64 -42c0 -11 11 -19 34 -25c13 -3 39 -8 79 -13c63 -8 102 -15 117 -20c35 -13 52 -35 52 -68c0 -31 -10 -60 -31 -89c-19 -26 -42 -47 -69 -62
c-49 -27 -103 -41 -160 -41c-54 0 -100 11 -137 34c-39 24 -59 54 -59 90c0 27 17 53 51 76c28 19 60 33 96 42c-35 11 -52 31 -52 60c0 34 36 59 109 76c-19 8 -35 21 -49 39c-19 26 -29 57 -29 92c0 57 23 105 68 144s97 58 154 58c37 0 66 -6 88 -18h140zM370 345
c1 62 -25 93 -76 93c-42 0 -76 -19 -103 -57c-23 -33 -35 -74 -35 -123c0 -64 25 -96 76 -96c47 0 82 22 107 65c20 36 30 75 31 118zM333 -76c0 22 -12 37 -37 45c-9 3 -35 8 -80 13c-17 2 -46 6 -87 11c-23 -3 -45 -12 -65 -25c-27 -17 -41 -39 -41 -64
c0 -30 15 -54 46 -71c28 -15 62 -23 103 -23c43 0 81 11 113 33s48 49 48 81z" />
    <glyph glyph-name="h" unicode="h" horiz-adv-x="551" 
d="M514 37c-33 -27 -71 -40 -114 -40c-46 0 -69 16 -69 47c0 15 11 61 32 136c25 84 40 143 45 178c3 15 4 26 4 33c0 23 -15 35 -44 35c-39 0 -81 -31 -126 -92c-67 -91 -111 -203 -130 -334h-77c0 27 9 77 27 151l51 207c19 72 41 170 68 293c1 9 2 17 2 22
c0 29 -16 37 -69 37l6 38c38 0 80 6 126 19h38c-3 -38 -20 -119 -51 -244c-29 -115 -53 -200 -70 -253c63 138 145 207 247 207c58 0 87 -24 87 -71c0 -12 -2 -26 -5 -41c-7 -33 -23 -94 -47 -184c-17 -65 -26 -104 -26 -117c0 -15 7 -23 21 -23c20 0 39 8 57 24z" />
    <glyph glyph-name="i" unicode="i" horiz-adv-x="280" 
d="M286 651c-5 -35 -33 -61 -62 -61c-31 0 -49 26 -44 61s32 61 63 61s48 -26 43 -61zM240 37c-33 -27 -70 -40 -111 -40c-45 0 -68 16 -68 49c0 17 10 61 31 134c24 87 39 145 45 176c4 22 6 37 6 45c0 18 -7 27 -21 27c-26 0 -46 -11 -60 -33l-18 29c30 35 73 53 129 53
c37 0 55 -18 55 -54c0 -23 -14 -87 -42 -192c-27 -102 -41 -158 -41 -167c0 -15 7 -23 21 -23c20 0 39 8 57 24z" />
    <glyph glyph-name="j" unicode="j" horiz-adv-x="282" 
d="M296 651c-5 -35 -33 -61 -62 -61c-31 0 -49 26 -44 61s32 61 63 61s48 -26 43 -61zM236 410c-22 -111 -53 -241 -94 -390c-24 -87 -61 -154 -110 -199c-40 -37 -79 -55 -118 -55c-36 0 -63 9 -80 26l41 51c19 -11 41 -16 65 -16c28 0 48 6 59 19s25 42 41 89
c40 117 76 257 107 421c4 22 6 37 6 45c0 18 -7 27 -21 27c-26 0 -46 -11 -60 -33l-18 29c30 35 72 53 127 53c38 0 57 -17 57 -52c0 -5 -1 -10 -2 -15z" />
    <glyph glyph-name="k" unicode="k" horiz-adv-x="477" 
d="M284 767c-3 -35 -19 -112 -49 -232c-26 -101 -52 -203 -78 -304c-17 -65 -32 -142 -45 -231h-77c0 27 9 77 27 151l51 207c19 72 41 170 68 293c1 9 2 17 2 22c0 29 -16 37 -69 37l6 38c38 0 80 6 126 19h38zM515 440l-51 -66c-25 5 -40 7 -45 7c-26 0 -57 -16 -93 -48
c-27 -27 -54 -53 -81 -80c17 -47 38 -94 62 -139c13 -23 23 -39 31 -48c12 -13 27 -20 44 -20c21 0 38 5 51 16l16 -29c-33 -23 -70 -35 -113 -35c-26 0 -46 6 -61 17c-9 8 -20 23 -33 45c-16 39 -43 95 -81 170c52 50 104 100 157 151c60 57 104 86 131 86
c23 0 45 -9 66 -27z" />
    <glyph glyph-name="l" unicode="l" horiz-adv-x="271" 
d="M280 767c-7 -58 -43 -224 -107 -499c-26 -111 -39 -178 -39 -200c0 -18 9 -27 27 -27c20 0 39 8 57 24l17 -28c-33 -27 -71 -40 -114 -40s-65 19 -65 56c0 27 16 108 47 243c15 64 31 128 47 192c22 95 33 156 33 184c0 29 -18 38 -73 38l6 38c38 0 80 6 126 19h38z" />
    <glyph glyph-name="m" unicode="m" horiz-adv-x="860" 
d="M824 37c-33 -27 -71 -40 -114 -40c-46 0 -69 16 -69 47c0 15 11 61 32 136c25 84 40 143 45 178c3 15 4 26 4 33c0 23 -15 35 -44 35c-39 0 -81 -31 -126 -92c-67 -91 -111 -203 -130 -334h-77c0 23 11 78 33 164c26 99 41 164 46 194c3 17 4 28 4 34c0 23 -14 34 -43 34
c-39 0 -81 -31 -126 -92c-67 -91 -111 -203 -130 -334h-77c0 41 14 107 41 198s41 157 41 200c0 21 -6 32 -19 32c-25 0 -45 -12 -60 -35l-18 29c31 35 72 53 123 53c35 0 53 -17 53 -50c0 -27 -11 -79 -33 -157c61 138 143 207 247 207c53 0 80 -24 80 -71
c0 -12 -2 -26 -5 -41c-6 -21 -15 -52 -28 -95c61 138 143 207 246 207c58 0 87 -24 87 -71c0 -12 -2 -26 -5 -41c-7 -33 -23 -94 -47 -184c-17 -65 -26 -104 -26 -117c0 -15 7 -23 21 -23c20 0 39 8 57 24z" />
    <glyph glyph-name="n" unicode="n" horiz-adv-x="570" 
d="M531 37c-33 -27 -71 -40 -114 -40c-46 0 -69 16 -69 47c0 15 11 61 32 136c25 84 40 143 45 178c3 15 4 26 4 33c0 23 -15 35 -44 35c-39 0 -81 -31 -126 -92c-67 -91 -111 -203 -130 -334h-77c0 41 14 107 41 198s41 157 41 200c0 21 -6 32 -19 32
c-25 0 -45 -12 -60 -35l-18 29c31 35 72 53 123 53c35 0 53 -17 53 -50c0 -27 -11 -79 -33 -157c61 138 143 207 247 207c58 0 87 -24 87 -71c0 -12 -2 -26 -5 -41c-7 -33 -23 -94 -47 -184c-17 -65 -26 -104 -26 -117c0 -15 7 -23 21 -23c20 0 39 8 57 24z" />
    <glyph glyph-name="o" unicode="o" horiz-adv-x="532" 
d="M492 306c0 -77 -27 -148 -81 -213c-57 -68 -124 -102 -200 -102c-53 0 -94 16 -123 49c-27 31 -40 71 -40 121c0 71 22 138 66 199c56 78 129 117 219 117c106 0 159 -57 159 -171zM404 305c0 37 -3 63 -9 78c-13 31 -40 47 -82 47c-55 0 -100 -35 -136 -106
c-27 -54 -41 -110 -41 -167c0 -79 31 -119 92 -119c55 0 99 33 133 100c29 56 43 112 43 167z" />
    <glyph glyph-name="p" unicode="p" horiz-adv-x="562" 
d="M523 337c0 -82 -22 -156 -67 -223c-55 -82 -130 -123 -227 -123c-28 0 -62 6 -101 19c-6 -17 -18 -62 -35 -135c-3 -11 -4 -21 -4 -30c0 -21 9 -34 27 -39c6 -1 25 -2 58 -2l-6 -38c-8 0 -27 0 -56 1s-52 1 -71 1c-18 0 -42 0 -71 -1c-30 -1 -49 -1 -57 -1l6 38
c31 -1 53 2 64 10s21 28 31 60c21 65 44 148 70 249c27 107 45 186 52 235c3 17 4 31 4 40c0 21 -6 32 -19 32c-25 0 -45 -12 -60 -35l-18 29c31 35 72 53 123 53c35 0 53 -17 53 -50c0 -19 -11 -72 -32 -157c19 49 47 93 84 131c48 51 100 76 155 76c65 0 97 -47 97 -140z
M434 323c0 29 -2 50 -7 63c-8 21 -24 32 -47 32c-47 0 -98 -48 -152 -143c-49 -84 -75 -154 -80 -211c23 -21 59 -31 108 -31c57 0 102 36 137 108c27 57 41 118 41 182z" />
    <glyph glyph-name="q" unicode="q" horiz-adv-x="533" 
d="M514 477c-27 -71 -59 -187 -96 -347c-17 -69 -39 -154 -64 -255c-3 -15 -5 -27 -5 -36c0 -17 6 -28 18 -32c5 -2 20 -3 45 -3l-6 -38c-8 0 -25 0 -50 1s-46 1 -65 1c-18 0 -42 0 -73 -1c-30 -1 -49 -1 -58 -1l6 38c39 -1 65 2 77 10c12 7 23 28 32 61
c34 119 61 222 81 307c-19 -41 -46 -80 -79 -115c-49 -51 -100 -76 -152 -76c-59 0 -89 45 -89 134c0 91 26 170 77 239c56 75 128 113 215 113c49 0 87 -10 115 -30l31 30h40zM406 397c-17 22 -49 33 -96 33c-58 0 -106 -39 -143 -117c-31 -66 -47 -129 -47 -190
c0 -55 14 -82 42 -82c45 0 96 49 155 148c50 85 80 155 89 208z" />
    <glyph glyph-name="r" unicode="r" horiz-adv-x="402" 
d="M443 448l-56 -62c-15 8 -31 12 -48 12c-48 0 -98 -62 -150 -185c-31 -73 -51 -144 -60 -213h-77c0 41 14 107 41 198s41 157 41 200c0 21 -6 32 -19 32c-25 0 -45 -12 -60 -35l-18 29c31 35 72 53 123 53c35 0 53 -17 53 -50c0 -18 -14 -78 -43 -180
c67 153 136 230 205 230c24 0 47 -10 68 -29z" />
    <glyph glyph-name="s" unicode="s" horiz-adv-x="374" 
d="M367 444l-47 -53c-27 17 -59 26 -96 26c-54 0 -81 -21 -81 -64c0 -25 27 -51 81 -78c33 -16 55 -30 68 -42c21 -19 32 -42 32 -68c0 -41 -19 -78 -58 -112c-43 -37 -94 -55 -154 -55c-53 0 -91 11 -113 33l42 60c30 -21 66 -31 107 -31c69 0 104 22 104 65
c0 26 -16 49 -47 68c-29 16 -59 32 -89 48c-31 21 -47 49 -47 82c0 36 16 70 48 101c37 35 83 52 138 52c47 0 85 -11 112 -32z" />
    <glyph glyph-name="t" unicode="t" horiz-adv-x="336" 
d="M374 458l-9 -47h-148c-11 -48 -25 -106 -41 -174c-9 -39 -18 -89 -27 -150c-1 -31 13 -46 41 -46c33 0 64 16 91 47l22 -30c-42 -45 -94 -67 -155 -67c-57 0 -86 23 -85 69c1 25 11 81 30 167c11 43 25 105 43 184h-93l9 47h97c7 31 16 72 27 122h83l-30 -122h145z" />
    <glyph glyph-name="u" unicode="u" horiz-adv-x="570" 
d="M540 35c-31 -25 -68 -38 -111 -38s-65 15 -65 45c0 26 11 78 33 156c-61 -138 -143 -207 -247 -207c-57 0 -85 25 -85 76c0 20 15 86 45 197c21 77 31 123 31 140c0 16 -6 24 -19 24c-26 0 -46 -11 -60 -33l-18 29c30 35 73 53 129 53c35 0 53 -20 53 -59
c0 -29 -13 -83 -39 -163s-39 -136 -39 -169c0 -29 15 -44 44 -44c39 0 81 31 126 92c67 91 111 203 130 334h77c0 -40 -13 -106 -40 -199c-27 -92 -40 -158 -40 -199c0 -19 8 -29 23 -29c19 0 38 8 56 23z" />
    <glyph glyph-name="v" unicode="v" horiz-adv-x="514" 
d="M478 347c0 -87 -27 -167 -82 -241c-57 -77 -127 -115 -210 -115c-75 0 -112 42 -110 127c1 29 8 78 23 149c15 69 22 114 22 137c0 16 -6 24 -19 24c-26 0 -46 -11 -60 -33l-18 29c30 35 73 53 129 53c36 0 54 -20 54 -59c0 -15 -8 -60 -24 -133
c-16 -76 -25 -126 -26 -150c-3 -63 20 -94 67 -94c45 0 87 27 126 82c35 48 52 107 52 177c0 63 -21 111 -64 144l75 52c43 -33 65 -83 65 -149z" />
    <glyph glyph-name="w" unicode="w" horiz-adv-x="809" 
d="M771 347c0 -89 -27 -169 -80 -241c-57 -77 -123 -115 -198 -115c-41 0 -71 14 -91 41c-17 23 -24 52 -23 88c1 33 5 63 10 89c-15 -42 -38 -83 -71 -124c-51 -63 -107 -94 -168 -94c-57 0 -85 25 -85 76c0 20 15 86 45 197c21 77 31 123 31 140c0 16 -6 24 -19 24
c-26 0 -46 -11 -60 -33l-18 29c30 35 73 53 129 53c35 0 53 -20 53 -59c0 -29 -13 -83 -39 -163s-39 -137 -39 -170c0 -29 13 -43 40 -43c35 0 75 31 120 92c63 86 105 197 125 334h74c1 -12 -3 -39 -12 -81l-18 -78c-15 -77 -22 -135 -22 -174c0 -62 25 -93 74 -93
c43 0 82 27 119 81c31 46 47 105 47 177c0 63 -21 111 -64 144l75 52c43 -33 65 -83 65 -149z" />
    <glyph glyph-name="x" unicode="x" horiz-adv-x="546" 
d="M583 452l-48 -66c-22 8 -41 12 -57 12c-32 0 -61 -12 -86 -36c-19 -17 -45 -52 -78 -104c15 -36 38 -87 70 -153c21 -37 45 -55 74 -55c15 0 32 7 52 22l16 -29c-39 -31 -77 -46 -114 -46c-39 0 -70 17 -92 52c-6 9 -26 54 -59 133c-72 -121 -140 -192 -211 -192
c-29 0 -53 10 -72 29l41 62c17 -13 38 -20 63 -20c28 0 59 22 93 66c8 10 30 44 67 103c-19 49 -39 92 -62 130c-22 39 -48 58 -78 58c-19 0 -35 -7 -50 -22l-16 29c33 29 70 43 111 43c27 0 49 -4 64 -12c13 -8 25 -21 36 -40c3 -6 20 -42 50 -109c35 52 65 90 90 114
c41 38 83 57 128 57c21 0 44 -9 68 -26z" />
    <glyph glyph-name="y" unicode="y" horiz-adv-x="551" 
d="M515 468c-3 -19 -21 -106 -56 -260c-24 -105 -44 -178 -59 -217c-22 -57 -55 -108 -99 -152c-49 -49 -107 -73 -174 -73c-48 0 -84 12 -108 37l39 57c33 -21 69 -32 110 -32c59 0 102 30 129 91c28 64 54 148 77 253c-17 -39 -40 -73 -68 -103c-49 -52 -104 -78 -165 -78
c-58 0 -87 24 -87 71c0 12 2 26 5 41c7 33 23 94 47 184c17 65 26 104 26 117c0 15 -7 23 -21 23c-20 0 -39 -8 -57 -24l-17 28c33 27 71 40 114 40c46 0 69 -16 69 -47c0 -15 -11 -61 -32 -136c-25 -84 -40 -143 -45 -178c-3 -15 -4 -26 -4 -33c0 -23 15 -35 44 -35
c39 0 81 31 126 92c65 89 108 200 128 334h78z" />
    <glyph glyph-name="z" unicode="z" horiz-adv-x="450" 
d="M456 458c-29 -54 -90 -125 -183 -213c-42 -39 -100 -94 -175 -166c32 -1 70 -4 115 -10c45 -5 80 -8 105 -8c31 0 53 5 66 16c8 6 16 20 24 41l29 -17c-23 -73 -75 -110 -154 -110c-33 0 -72 5 -119 14c-46 10 -81 15 -106 15c-15 0 -28 -3 -38 -10
c-6 -5 -12 -11 -18 -16l-25 26c7 15 36 46 87 93c49 45 98 89 147 134c87 81 136 132 147 151c-19 -1 -35 -2 -50 -2c-14 0 -33 1 -57 2c-23 1 -42 2 -56 2c-35 0 -60 -3 -73 -10c-19 -11 -32 -33 -39 -68l-32 17c9 33 18 57 28 73c24 37 59 56 105 56c21 0 54 -2 97 -6
c36 -3 62 -5 78 -5c19 0 31 0 36 1c12 2 22 8 29 18z" />
    <glyph glyph-name="braceleft" unicode="{" horiz-adv-x="355" 
d="M429 767l-4 -29c-54 3 -92 -11 -114 -40c-14 -18 -24 -43 -30 -74c-7 -45 -13 -90 -20 -135c-19 -123 -72 -198 -157 -223c61 -19 92 -73 92 -163c0 -19 -2 -39 -5 -60s-9 -55 -17 -101c-5 -29 -8 -50 -8 -63c0 -16 3 -31 9 -45c8 -19 22 -31 43 -36c12 -3 31 -5 57 -4
l-4 -29c-72 -2 -122 14 -150 47c-17 20 -26 47 -26 80c0 21 5 64 16 131c10 62 15 109 15 140c0 68 -20 90 -68 90l3 27c34 0 60 16 78 47c18 32 34 93 48 182c11 68 19 111 24 130c20 68 71 109 119 121c25 7 58 9 99 7z" />
    <glyph glyph-name="bar" unicode="|" horiz-adv-x="280" 
d="M179 -233l-78 -1v1000h78v-999z" />
    <glyph glyph-name="braceright" unicode="}" horiz-adv-x="355" 
d="M301 279l-3 -27c-34 0 -60 -15 -77 -46c-19 -33 -35 -94 -49 -183c-11 -68 -19 -111 -24 -130c-20 -68 -71 -109 -120 -121c-24 -7 -57 -9 -98 -7l4 29c54 -3 92 11 114 40c14 18 24 43 30 74c7 45 13 90 20 135c19 123 72 198 157 223c-61 19 -92 73 -92 163
c0 19 2 39 5 60s9 55 17 101c5 29 8 50 8 63c0 16 -3 31 -9 45c-8 19 -22 31 -43 36c-12 3 -31 5 -57 4l4 29c72 2 122 -14 150 -47c17 -20 26 -47 26 -80c0 -21 -5 -64 -16 -131c-10 -62 -15 -109 -15 -140c0 -68 20 -90 68 -90z" />
    <glyph glyph-name="asciitilde" unicode="~" horiz-adv-x="549" 
d="M512 271c-41 -57 -87 -85 -140 -85c-17 0 -52 7 -107 21s-90 21 -107 21c-38 0 -70 -17 -96 -52l-24 27c41 57 87 85 140 85c17 0 52 -7 107 -21s90 -21 107 -21c38 0 70 17 96 52z" />
    <glyph glyph-name="exclamdown" unicode="&#xa1;" horiz-adv-x="299" 
d="M224 636c-4 -32 -30 -57 -59 -57c-33 0 -48 19 -43 57c4 33 29 56 60 56c33 0 47 -19 42 -56zM164 496c-1 -37 -3 -98 -7 -182c-3 -35 -8 -88 -16 -159c-5 -37 -12 -75 -19 -113c-6 -35 -23 -53 -50 -53s-39 18 -34 53c2 17 7 55 15 113c4 23 15 76 33 159
c15 55 30 115 46 182h32z" />
    <glyph glyph-name="cent" unicode="&#xa2;" horiz-adv-x="420" 
d="M440 426l-26 -78c-12 20 -28 37 -48 50c-22 15 -44 22 -67 22l-58 -366c45 0 87 18 127 55l17 -31c-35 -45 -86 -73 -153 -84l-13 -77h-44l12 74c-96 7 -155 73 -155 184c0 18 2 38 5 59c11 67 40 123 87 168c41 39 87 63 140 72l12 78h44l-12 -75c64 0 108 -17 132 -51z
M255 420c-35 0 -65 -23 -92 -69c-21 -36 -34 -74 -40 -114c-2 -14 -3 -29 -3 -45c0 -41 8 -75 24 -100c15 -22 33 -34 54 -35z" />
    <glyph glyph-name="sterling" unicode="&#xa3;" horiz-adv-x="551" 
d="M527 652l-49 -58c-26 26 -59 39 -98 39c-25 0 -45 -7 -60 -21c-24 -23 -42 -79 -53 -166l-13 -101h201l-8 -51h-199c-9 -61 -21 -108 -37 -141c-15 -30 -37 -59 -66 -86c44 -3 85 -4 124 -4c71 0 116 4 137 12c26 11 42 36 49 77h36l-12 -78c-8 -50 -42 -75 -103 -75
c-38 0 -86 0 -143 1s-91 2 -102 2c-17 0 -40 0 -69 -1s-47 -1 -55 -1l6 38c50 0 85 17 105 50c21 33 37 102 49 206h-121l7 51h118l11 91c11 88 46 156 105 205c41 34 85 51 131 51s82 -13 109 -40z" />
    <glyph glyph-name="fraction" unicode="&#x2044;" horiz-adv-x="960" 
d="M776 742l-586 -847l-44 30l584 845z" />
    <glyph glyph-name="yen" unicode="&#xa5;" horiz-adv-x="585" 
d="M686 683l-6 -38c-43 0 -81 -18 -115 -53l-166 -172l-12 -74h146l-8 -51h-146l-15 -90h148l-8 -51h-148l-8 -55c-1 -5 -1 -11 -1 -16c0 -19 7 -32 22 -39c9 -4 26 -6 49 -6l-6 -38c-8 0 -25 0 -52 1s-49 1 -66 1s-40 0 -68 -1c-27 -1 -45 -1 -53 -1l6 38c26 0 44 3 55 8
c19 9 30 26 34 53l8 55h-143l8 51h143l15 90h-144l8 51h144l6 40l-135 211c-13 21 -28 35 -44 42c-9 4 -23 6 -40 6l6 38c8 0 24 0 49 -1s46 -1 63 -1s38 0 63 1s41 1 49 1l-6 -38c-33 0 -50 -7 -50 -21c0 -7 3 -15 10 -25l93 -145l129 138c10 11 15 20 15 29
c0 16 -17 24 -50 24l6 38c8 0 24 0 47 -1s44 -1 61 -1s37 0 60 1s39 1 47 1z" />
    <glyph glyph-name="florin" unicode="&#x192;" horiz-adv-x="737" 
d="M728 687c0 -41 -19 -62 -58 -62c-30 0 -45 12 -45 36c0 9 4 20 12 32c9 12 13 18 13 19c0 9 -13 14 -40 15c-41 2 -74 -20 -97 -67c-19 -38 -39 -108 -60 -211h126v-47h-139c-21 -111 -45 -217 -73 -318c-26 -93 -57 -160 -94 -199c-33 -35 -77 -53 -130 -53
c-77 0 -115 26 -115 78c0 41 20 61 60 61c29 0 44 -14 44 -41c0 -13 -5 -23 -16 -31c-10 -9 -15 -14 -15 -16c0 -9 14 -14 42 -14c40 0 71 21 94 64c15 27 35 89 61 186c20 75 42 169 66 283h-93v47h107c33 211 111 317 234 317c77 0 116 -26 116 -79z" />
    <glyph glyph-name="section" unicode="&#xa7;" horiz-adv-x="462" 
d="M450 678c-2 -9 -5 -29 -10 -58c-3 -19 -5 -39 -6 -59h-38c1 7 1 13 1 19c0 48 -30 72 -91 72c-71 0 -106 -25 -106 -75c0 -23 10 -42 31 -55c13 -9 36 -18 70 -29c43 -13 73 -25 90 -36c27 -18 41 -41 41 -70c0 -37 -13 -70 -40 -99c-21 -22 -47 -39 -77 -50
c51 -21 76 -50 76 -89c0 -47 -19 -85 -58 -114c-38 -29 -85 -44 -141 -44c-30 0 -60 3 -90 9c-30 7 -51 10 -62 10c2 12 5 34 10 65c3 19 5 41 7 66h37c-1 -9 -2 -18 -2 -25c0 -56 35 -84 106 -84c73 0 114 34 114 87c0 23 -10 41 -30 52c-8 5 -36 16 -85 33
c-41 14 -70 29 -88 46c-23 20 -35 46 -35 78s12 61 36 88c19 21 42 37 70 48c-14 7 -26 17 -36 32c-13 19 -20 39 -20 61c0 80 71 136 187 136c24 0 50 -3 78 -8s48 -7 61 -7zM355 355c0 27 -14 47 -43 61c-8 3 -38 13 -90 28c-18 -3 -34 -12 -48 -28
c-17 -18 -25 -40 -25 -65c0 -39 40 -70 119 -93c58 9 87 42 87 97z" />
    <glyph glyph-name="currency" unicode="&#xa4;" 
d="M515 165l-39 -39l-53 51c-37 -29 -79 -43 -125 -43c-47 0 -90 14 -127 41l-51 -48l-37 36l49 51c-27 39 -40 81 -40 127c0 45 14 86 42 124l-51 54l39 39l52 -51c38 28 79 42 124 42c50 0 93 -13 129 -40l49 47l37 -36l-47 -49c27 -36 40 -79 40 -128
c0 -45 -14 -87 -43 -125zM442 342c0 41 -13 77 -39 106c-28 30 -63 45 -105 45c-85 0 -141 -64 -141 -152c0 -43 13 -79 40 -108c27 -28 62 -42 103 -42c43 0 78 15 105 46c25 28 37 63 37 105z" />
    <glyph glyph-name="quotesingle" unicode="'" horiz-adv-x="179" 
d="M166 722c-6 -36 -25 -102 -58 -199h-37c-3 91 -2 157 5 199c5 33 17 44 52 44c27 0 40 -9 40 -27c0 -5 -1 -10 -2 -17z" />
    <glyph glyph-name="quotedblleft" unicode="&#x201c;" horiz-adv-x="458" 
d="M524 733c-74 -19 -111 -43 -111 -71c0 -10 7 -21 20 -34s20 -25 20 -38c0 -33 -18 -49 -53 -49c-36 0 -60 29 -60 72c0 39 14 73 43 100c31 29 71 48 118 56zM318 733c-74 -19 -111 -43 -111 -71c0 -10 7 -21 20 -34s20 -25 20 -38c0 -33 -18 -49 -53 -49
c-36 0 -60 29 -60 72c0 39 14 73 43 100c31 29 71 48 118 56z" />
    <glyph glyph-name="guillemotleft" unicode="&#xab;" horiz-adv-x="411" 
d="M385 468l-100 -220l30 -220h-44l-67 220l137 220h44zM235 468l-100 -220l30 -220h-44l-67 220l137 220h44z" />
    <glyph glyph-name="guilsinglleft" unicode="&#x2039;" horiz-adv-x="252" 
d="M274 468l-100 -220l30 -220h-44l-67 220l137 220h44z" />
    <glyph glyph-name="guilsinglright" unicode="&#x203a;" horiz-adv-x="262" 
d="M220 248l-137 -220h-44l99 220l-29 220h44z" />
    <glyph glyph-name="endash" unicode="&#x2013;" horiz-adv-x="500" 
d="M500 264l-8 -50h-492l8 50h492z" />
    <glyph glyph-name="dagger" unicode="&#x2020;" horiz-adv-x="480" 
d="M481 460c-5 -25 -25 -38 -61 -38c-16 0 -43 3 -80 10c-41 7 -64 11 -69 12l-35 -341c-4 -25 -10 -49 -18 -72c-12 -32 -25 -48 -38 -48c-16 0 -24 22 -24 67c0 19 1 36 4 53c9 61 35 174 76 340c-7 0 -32 -4 -73 -11s-69 -10 -84 -10c-37 0 -54 13 -49 38s25 38 61 38
c16 0 43 -3 80 -10c43 -8 67 -12 70 -13c1 49 3 111 8 187c4 26 19 39 45 39c25 0 36 -13 32 -39c-3 -16 -11 -49 -26 -98c-16 -55 -25 -84 -26 -89c3 0 27 4 74 13c40 7 68 10 84 10c37 0 54 -13 49 -38z" />
    <glyph glyph-name="daggerdbl" unicode="&#x2021;" horiz-adv-x="480" 
d="M493 460c-4 -25 -24 -37 -61 -37c-16 0 -43 3 -80 10c-41 7 -64 10 -69 11c-2 -12 -3 -24 -3 -35c0 -28 5 -50 16 -67c-7 -8 -13 -17 -18 -26c-13 -23 -22 -48 -27 -76c9 0 33 3 74 10s69 11 83 11c37 0 53 -12 49 -37s-24 -38 -61 -38c-15 0 -41 4 -80 11s-62 11 -70 11
c0 -49 -2 -111 -7 -187c-4 -25 -19 -38 -45 -38c-25 0 -36 13 -32 38c15 53 32 115 51 187c-7 0 -31 -4 -72 -11s-70 -11 -85 -11c-37 0 -53 13 -49 38s24 37 61 37c15 0 42 -4 81 -11s61 -11 68 -11c2 12 3 24 3 35c0 28 -5 51 -16 68c7 7 13 16 18 25c13 23 22 48 27 77
c-6 -1 -31 -4 -74 -11c-39 -7 -67 -10 -83 -10c-37 0 -53 12 -49 37s24 37 61 37c15 0 42 -4 81 -11s62 -10 69 -10c0 48 2 110 7 185c5 27 20 40 45 40c27 0 38 -13 33 -40c-3 -15 -11 -48 -26 -97c-16 -51 -25 -81 -26 -88c8 0 32 3 73 10s69 11 84 11c37 0 53 -12 49 -37
z" />
    <glyph glyph-name="paragraph" unicode="&#xb6;" horiz-adv-x="610" 
d="M667 700c-14 -15 -36 -28 -65 -39c-26 -9 -51 -14 -74 -14l-60 -379h102l-7 -44h-102l-9 -61c-11 -73 -42 -133 -94 -180c-46 -42 -88 -63 -127 -63s-66 10 -81 29l37 63c21 -18 48 -27 80 -27c29 0 51 10 64 31c13 19 23 53 30 102l16 106c-163 0 -245 62 -245 186
c0 15 1 31 4 48c14 89 54 154 120 193c46 27 101 41 165 41h51c19 -1 31 -1 36 -1c53 0 97 16 131 47zM444 646c-39 0 -65 -16 -79 -47c-8 -17 -18 -64 -29 -141c-11 -70 -16 -112 -16 -125c0 -43 21 -65 64 -65z" />
    <glyph glyph-name="bullet" unicode="&#x2022;" horiz-adv-x="471" 
d="M380 350c0 -40 -14 -74 -43 -102c-28 -28 -62 -42 -102 -42s-74 14 -103 42c-28 28 -42 62 -42 102s14 74 42 102c29 29 63 43 103 43s74 -14 102 -43c29 -28 43 -62 43 -102z" />
    <glyph glyph-name="quotesinglbase" unicode="&#x201a;" horiz-adv-x="233" 
d="M175 33c0 -39 -14 -73 -43 -100c-31 -29 -71 -48 -118 -56l-23 36c74 19 111 43 111 71c0 10 -7 21 -20 34s-20 25 -20 38c0 33 18 49 53 49c36 0 60 -29 60 -72z" />
    <glyph glyph-name="quotedblbase" unicode="&#x201e;" horiz-adv-x="440" 
d="M382 33c0 -39 -14 -73 -43 -100c-31 -29 -71 -48 -118 -56l-23 36c74 19 111 43 111 71c0 10 -7 21 -20 34s-20 25 -20 38c0 33 18 49 53 49c36 0 60 -29 60 -72zM175 33c0 -39 -14 -73 -43 -100c-31 -29 -71 -48 -118 -56l-23 36c74 19 111 43 111 71c0 10 -7 21 -20 34
s-20 25 -20 38c0 33 18 49 53 49c36 0 60 -29 60 -72z" />
    <glyph glyph-name="quotedblright" unicode="&#x201d;" horiz-adv-x="458" 
d="M491 695c0 -39 -14 -73 -43 -100c-31 -29 -71 -48 -118 -56l-23 36c74 19 111 43 111 71c0 10 -7 21 -20 34s-20 25 -20 38c0 33 18 49 53 49c36 0 60 -29 60 -72zM284 695c0 -39 -14 -73 -43 -100c-31 -29 -71 -48 -118 -56l-23 36c74 19 111 43 111 71
c0 10 -7 21 -20 34s-20 25 -20 38c0 33 18 49 53 49c36 0 60 -29 60 -72z" />
    <glyph glyph-name="guillemotright" unicode="&#xbb;" horiz-adv-x="411" 
d="M355 248l-137 -220h-44l99 220l-29 220h44zM206 248l-137 -220h-44l99 220l-29 220h44z" />
    <glyph glyph-name="ellipsis" unicode="&#x2026;" horiz-adv-x="1000" 
d="M962 46c-4 -33 -29 -56 -60 -56c-33 0 -47 19 -42 56c4 32 30 57 59 57c33 0 48 -19 43 -57zM555 46c-4 -33 -29 -56 -60 -56c-33 0 -47 19 -42 56c4 32 30 57 59 57c33 0 48 -19 43 -57zM148 46c-4 -33 -29 -56 -60 -56c-33 0 -47 19 -42 56c4 32 30 57 59 57
c33 0 48 -19 43 -57z" />
    <glyph glyph-name="perthousand" unicode="&#x2030;" horiz-adv-x="1163" 
d="M380 603c0 -55 -20 -103 -59 -145s-84 -63 -137 -63c-80 0 -133 50 -133 137c0 54 19 101 57 142s84 62 137 62c84 0 135 -50 135 -133zM685 733l-591 -833l-44 30l590 836zM1075 138c0 -55 -20 -103 -59 -145s-84 -63 -137 -63c-80 0 -133 50 -133 137
c0 53 19 101 57 142c39 41 84 62 137 62c84 0 135 -50 135 -133zM681 138c0 -55 -20 -103 -59 -145s-84 -63 -137 -63c-80 0 -133 50 -133 137c0 53 19 101 57 142c39 41 84 62 137 62c84 0 135 -50 135 -133zM313 597c0 67 -25 100 -75 100c-41 0 -73 -20 -96 -61
c-17 -31 -26 -64 -26 -100c0 -67 26 -100 78 -100c39 0 69 19 91 56c19 31 28 66 28 105zM1008 132c0 67 -25 100 -75 100c-41 0 -73 -20 -96 -61c-17 -31 -26 -64 -26 -100c0 -67 26 -100 78 -100c39 0 69 19 91 56c19 31 28 66 28 105zM614 132c0 67 -25 100 -75 100
c-41 0 -73 -20 -96 -61c-17 -31 -26 -64 -26 -100c0 -67 26 -100 78 -100c39 0 69 19 91 56c19 31 28 66 28 105z" />
    <glyph glyph-name="questiondown" unicode="&#xbf;" horiz-adv-x="477" 
d="M383 636c-4 -32 -30 -57 -59 -57c-33 0 -48 19 -43 57c4 33 29 56 60 56c33 0 47 -19 42 -56zM381 438c0 -29 -14 -50 -41 -63c0 0 -44 -15 -131 -44c-101 -35 -134 -71 -134 -134c0 -37 15 -69 44 -96c29 -26 66 -39 109 -39c37 0 69 10 95 30c9 6 20 18 35 37l20 -33
c-11 -22 -29 -43 -54 -62c-38 -29 -81 -44 -130 -44c-57 0 -102 17 -137 52c-33 32 -49 72 -49 120c0 119 65 200 195 243c32 10 64 20 96 31c20 8 30 19 30 34c0 16 -10 28 -30 37l36 20c12 -6 22 -17 31 -32c10 -18 15 -37 15 -57z" />
    <glyph glyph-name="grave" unicode="`" horiz-adv-x="260" 
d="M273 580l-25 -26l-190 147l46 47z" />
    <glyph glyph-name="acute" unicode="&#xb4;" horiz-adv-x="235" 
d="M385 701l-190 -147l-25 26l169 168z" />
    <glyph glyph-name="circumflex" unicode="&#x2c6;" horiz-adv-x="261" 
d="M361 582l-32 -30l-85 116h-21l-170 -116l-24 30l194 161h55z" />
    <glyph glyph-name="tilde" unicode="&#x2dc;" horiz-adv-x="488" 
d="M554 677c-41 -50 -82 -75 -123 -75c-17 0 -36 4 -59 11c-23 8 -40 12 -52 12c-33 0 -61 -16 -85 -49l-25 27c15 21 34 39 58 55c28 19 55 28 82 28c14 0 32 -4 55 -12s41 -12 52 -12c27 0 50 12 70 36z" />
    <glyph glyph-name="breve" unicode="&#x2d8;" horiz-adv-x="453" 
d="M396 658c-59 -64 -121 -96 -185 -96c-63 0 -113 32 -150 96l29 25c38 -41 82 -62 133 -62c55 0 105 21 152 62z" />
    <glyph glyph-name="dotaccent" unicode="&#x2d9;" horiz-adv-x="280" 
d="M286 651c-5 -35 -33 -61 -62 -61c-31 0 -49 26 -44 61s32 61 63 61s48 -26 43 -61z" />
    <glyph glyph-name="dieresis" unicode="&#xa8;" horiz-adv-x="281" 
d="M353 648c-4 -31 -31 -50 -60 -50c-33 0 -47 17 -42 50c4 29 30 51 59 51c33 0 48 -17 43 -51zM158 648c-4 -31 -31 -50 -60 -50c-33 0 -47 17 -42 50c4 29 30 51 59 51c33 0 48 -17 43 -51z" />
    <glyph glyph-name="ring" unicode="&#x2da;" horiz-adv-x="542" 
d="M504 684c0 -40 -17 -70 -50 -91c-23 -15 -51 -22 -84 -22c-27 0 -49 7 -67 22c-21 17 -31 42 -31 73c0 32 13 59 40 80c27 22 56 33 89 33c63 0 103 -34 103 -95zM458 682c0 41 -20 62 -61 62c-48 0 -79 -31 -79 -79c0 -41 20 -61 60 -61c53 0 80 26 80 78z" />
    <glyph glyph-name="cedilla" unicode="&#xb8;" horiz-adv-x="420" 
d="M277 -116c0 -29 -13 -52 -39 -70c-25 -19 -53 -28 -83 -28c-43 0 -89 19 -105 40l44 44c31 -23 61 -34 88 -34c26 0 39 10 39 29c0 24 -25 41 -76 50l42 85h38l-21 -43c49 -12 73 -36 73 -73z" />
    <glyph glyph-name="hungarumlaut" unicode="&#x2dd;" horiz-adv-x="500" 
d="M585 701l-190 -147l-25 26l169 168zM385 701l-190 -147l-25 26l169 168z" />
    <glyph glyph-name="ogonek" unicode="&#x2db;" horiz-adv-x="313" 
d="M272 -174c-21 -27 -54 -41 -100 -41c-35 0 -62 10 -82 31c-19 19 -28 42 -28 70c0 29 10 56 29 81c17 22 37 38 60 47l24 -19c-25 -17 -38 -43 -38 -79c0 -53 23 -80 69 -80c21 0 38 6 52 17z" />
    <glyph glyph-name="caron" unicode="&#x2c7;" horiz-adv-x="261" 
d="M374 698l-194 -161h-55l-83 161l32 30l85 -116h21l170 116z" />
    <glyph glyph-name="emdash" unicode="&#x2014;" horiz-adv-x="1000" 
d="M1000 264l-8 -50h-992l8 50h992z" />
    <glyph glyph-name="AE" unicode="&#xc6;" horiz-adv-x="1019" 
d="M1009 683l-10 -67c-3 -19 -5 -41 -8 -66h-39c2 12 3 22 3 30c0 25 -10 40 -30 47c-16 5 -51 8 -106 8c-58 0 -97 0 -117 -1l-38 -250h95c53 0 87 3 100 9c16 8 27 29 32 62h38c-3 -17 -8 -50 -17 -100c-3 -23 -7 -57 -13 -101h-38c3 15 4 28 4 37c0 21 -8 35 -24 42
c-13 5 -41 7 -85 7h-97l-35 -221c-1 -10 -2 -19 -2 -26c0 -21 9 -34 26 -39c12 -3 42 -5 91 -5c66 0 109 4 129 13c29 13 48 43 56 90h36c-3 -15 -8 -41 -14 -76c-3 -19 -6 -44 -10 -76l-369 2c-17 0 -39 0 -66 -1s-44 -1 -52 -1l6 38c24 0 40 2 48 5c17 7 28 22 32 47
l32 206h-225l-153 -170c-17 -19 -25 -35 -25 -48c0 -27 20 -40 60 -40l-5 -38c-8 0 -24 0 -48 1s-45 1 -62 1s-38 0 -62 -1c-23 -1 -39 -1 -47 -1l5 38c21 0 48 16 80 47c1 1 24 27 69 76l471 522h213h171zM615 599l-233 -259h192z" />
    <glyph glyph-name="ordfeminine" unicode="&#xaa;" horiz-adv-x="313" 
d="M297 693c-9 -16 -22 -55 -37 -116c-15 -57 -22 -93 -23 -109c-1 -15 3 -22 10 -22c11 0 22 4 32 12l10 -18c-20 -15 -41 -23 -64 -23c-25 0 -38 10 -38 31c0 11 4 30 11 56c-38 -61 -79 -91 -124 -91c-35 0 -53 26 -53 79c0 39 11 78 32 117c31 57 76 85 137 85
c28 0 50 -6 65 -17l17 17zM279 364l-8 -49h-254l8 49h254zM232 646c-10 12 -28 18 -53 18c-33 0 -59 -22 -79 -66c-18 -39 -27 -75 -27 -107c0 -30 7 -45 22 -45c25 0 54 28 87 83c27 47 44 86 50 117z" />
    <glyph glyph-name="Lslash" unicode="&#x141;" horiz-adv-x="512" 
d="M484 151c-3 -16 -8 -42 -14 -77c-3 -19 -6 -43 -10 -74l-336 2c-18 0 -41 0 -68 -1s-45 -1 -54 -1l6 38c25 0 41 2 49 5c19 7 30 22 34 47l34 213l-104 -44l-21 49l135 57l36 228c1 5 1 9 1 13c0 19 -8 31 -24 36c-7 2 -21 3 -44 3l6 38c9 0 26 0 52 -1
c27 -1 49 -1 67 -1c19 0 41 0 67 1c27 1 44 1 52 1l-6 -38c-25 0 -41 -2 -49 -5c-19 -7 -30 -22 -34 -47l-30 -188l126 54l21 -49l-157 -66l-35 -226c-1 -9 -2 -18 -2 -25c0 -21 9 -35 28 -40c12 -3 44 -5 96 -5c49 0 83 7 102 21s31 41 38 82h38z" />
    <glyph glyph-name="Oslash" unicode="&#xd8;" horiz-adv-x="842" 
d="M788 419c0 -120 -35 -221 -104 -302c-76 -89 -179 -134 -309 -134c-65 0 -122 15 -169 45l-78 -92l-38 35l75 89c-53 51 -79 119 -79 204c0 125 35 228 106 308c76 86 180 129 311 129c67 0 123 -13 167 -40c21 25 46 54 74 88l38 -35l-71 -85c51 -49 77 -119 77 -210z
M623 605c-32 30 -76 45 -133 45c-97 0 -172 -36 -225 -109c-52 -70 -78 -164 -78 -283c0 -53 10 -98 31 -135zM687 417c0 61 -10 110 -31 147l-405 -482c35 -32 83 -48 142 -48c84 0 154 35 210 105c56 71 84 163 84 278z" />
    <glyph glyph-name="OE" unicode="&#x152;" horiz-adv-x="962" 
d="M952 683l-10 -67c-3 -19 -5 -41 -8 -66h-39c2 12 3 22 3 30c0 25 -10 40 -30 47c-16 5 -51 8 -106 8c-58 0 -97 0 -117 -1l-38 -250h95c53 0 87 3 100 9c16 8 27 29 32 62h38c-3 -17 -8 -50 -17 -100c-3 -23 -7 -57 -13 -101h-38c3 15 4 28 4 37c0 21 -8 35 -24 42
c-13 5 -41 7 -85 7h-97l-35 -221c-1 -10 -2 -19 -2 -26c0 -21 9 -34 26 -39c12 -3 42 -5 91 -5c66 0 109 4 129 13c29 13 48 43 56 90h36c-3 -15 -8 -41 -14 -76c-3 -19 -6 -44 -10 -76l-369 2c-25 0 -84 -3 -147 -3c-87 0 -157 24 -210 73s-79 113 -79 192
c0 124 35 224 106 299c75 80 178 120 311 120h72c21 -1 38 -1 50 -1c14 0 39 0 75 1h93h171zM554 582c3 23 -4 38 -21 45c-11 5 -29 7 -55 7c-97 0 -172 -33 -225 -100s-79 -159 -79 -276c0 -59 15 -107 45 -144c37 -44 91 -66 162 -66c60 0 93 17 98 51z" />
    <glyph glyph-name="ordmasculine" unicode="&#xba;" horiz-adv-x="290" 
d="M269 594c0 -41 -13 -80 -40 -115c-33 -44 -74 -66 -122 -66c-31 0 -54 10 -71 29c-16 17 -24 41 -24 70c0 47 16 89 47 126c32 37 71 56 117 56c62 0 93 -33 93 -100zM257 364l-8 -49h-254l8 49h254zM215 594c0 20 -2 34 -5 43c-7 17 -22 26 -45 26
c-29 0 -54 -19 -74 -57c-17 -33 -25 -65 -25 -97c0 -44 17 -66 51 -66c30 0 54 19 73 56c17 33 25 64 25 95z" />
    <glyph glyph-name="ae" unicode="&#xe6;" horiz-adv-x="734" 
d="M739 379c0 -48 -28 -83 -85 -104c-40 -15 -88 -23 -145 -23c-24 0 -49 1 -74 4c-8 -29 -12 -61 -12 -96c0 -79 36 -118 108 -118c51 0 92 27 123 80l23 -30c-31 -67 -91 -101 -181 -101c-102 0 -155 53 -158 158c-24 -41 -52 -76 -83 -103c-43 -37 -86 -55 -130 -55
c-59 0 -89 45 -89 134c0 69 18 137 55 205c53 98 132 147 237 147c56 0 100 -16 133 -49c22 15 37 25 46 29c29 13 63 20 102 20c45 0 78 -10 101 -31c19 -17 29 -39 29 -67zM656 380c0 12 -5 23 -14 34c-11 13 -27 19 -47 19c-69 0 -119 -47 -149 -141c75 -6 128 -2 159 12
c34 15 51 40 51 76zM396 397c-24 22 -53 33 -86 33c-58 0 -106 -39 -143 -117c-31 -66 -47 -129 -47 -190c0 -55 14 -82 42 -82c46 0 95 44 147 133c46 78 75 152 87 223z" />
    <glyph glyph-name="dotlessi" unicode="&#x131;" horiz-adv-x="280" 
d="M240 37c-33 -27 -70 -40 -111 -40c-45 0 -68 16 -68 49c0 17 10 61 31 134c24 87 39 145 45 176c4 22 6 37 6 45c0 18 -7 27 -21 27c-26 0 -46 -11 -60 -33l-18 29c30 35 73 53 129 53c37 0 55 -18 55 -54c0 -23 -14 -87 -42 -192c-27 -102 -41 -158 -41 -167
c0 -15 7 -23 21 -23c20 0 39 8 57 24z" />
    <glyph glyph-name="lslash" unicode="&#x142;" horiz-adv-x="271" 
d="M319 417l-132 -89c-4 -15 -9 -35 -14 -60c-26 -113 -39 -179 -39 -200c0 -18 9 -27 27 -27c20 0 39 8 57 24l17 -28c-33 -27 -71 -40 -114 -40s-65 19 -65 56c0 26 13 97 40 213l-68 -46l-27 39l111 75c14 57 28 115 42 172c19 84 29 139 29 165c0 31 -18 39 -73 39l6 38
c38 0 80 6 126 19h38c-7 -53 -32 -177 -77 -371c16 11 46 32 89 61z" />
    <glyph glyph-name="oslash" unicode="&#xf8;" horiz-adv-x="532" 
d="M492 306c0 -77 -27 -148 -81 -213c-57 -68 -124 -102 -200 -102c-21 0 -43 3 -64 10l-48 -74l-35 24l45 70c-41 30 -61 77 -61 140c0 71 22 138 66 199c56 78 129 117 219 117c26 0 48 -3 66 -10l52 80l35 -24c-16 -25 -33 -51 -50 -76c37 -28 56 -75 56 -141zM367 417
c-14 9 -32 13 -54 13c-55 0 -100 -35 -136 -106c-27 -54 -41 -110 -41 -167c0 -33 4 -59 12 -76c40 61 113 173 219 336zM404 305c0 37 -3 63 -9 78l-217 -334c13 -7 29 -11 50 -11c55 0 99 33 133 100c29 56 43 112 43 167z" />
    <glyph glyph-name="oe" unicode="&#x153;" horiz-adv-x="783" 
d="M788 379c0 -48 -28 -83 -85 -104c-40 -15 -88 -23 -145 -23c-24 0 -49 1 -74 4c-8 -29 -12 -61 -12 -96c0 -79 36 -118 108 -118c51 0 92 27 123 80l23 -30c-31 -67 -91 -101 -181 -101c-77 0 -125 29 -146 88c-55 -59 -118 -88 -188 -88c-53 0 -94 16 -123 49
c-27 31 -40 71 -40 121c0 71 22 138 66 199c56 78 129 117 219 117c72 0 119 -27 142 -81c3 3 7 8 13 13c47 45 104 68 170 68c45 0 78 -10 101 -31c19 -17 29 -39 29 -67zM705 380c0 12 -5 23 -14 34c-11 13 -27 19 -47 19c-69 0 -119 -47 -149 -141c75 -6 128 -2 159 12
c34 15 51 40 51 76zM404 301c0 43 -6 74 -17 93c-13 24 -38 36 -74 36c-53 0 -97 -33 -132 -99c-30 -55 -45 -112 -45 -170c0 -39 5 -68 16 -87c15 -24 40 -36 76 -36c55 0 99 33 133 100c29 56 43 110 43 163z" />
    <glyph glyph-name="germandbls" unicode="&#xdf;" horiz-adv-x="620" 
d="M657 612c0 -49 -21 -90 -64 -123c-39 -22 -79 -44 -119 -66c-43 -25 -64 -52 -64 -83c0 -16 9 -31 26 -44c10 -8 29 -19 57 -33c41 -21 64 -33 69 -36c22 -16 33 -37 33 -62c0 -41 -19 -78 -58 -112c-43 -37 -94 -56 -154 -56c-56 0 -95 11 -118 34l42 60
c31 -21 68 -32 111 -32c71 0 106 22 106 66c0 20 -10 36 -29 48c-21 10 -43 20 -64 30c-32 16 -54 29 -65 39c-21 19 -31 44 -31 75c0 41 21 77 62 107c39 23 78 47 117 71c41 28 62 60 62 95c0 36 -13 65 -38 87c-27 23 -66 35 -115 35c-57 0 -99 -22 -126 -65
c-21 -36 -41 -107 -60 -212c-11 -71 -29 -167 -52 -288c-21 -87 -38 -147 -52 -178c-23 -56 -59 -104 -107 -145c-45 -39 -97 -58 -154 -58c-37 0 -62 7 -76 22l42 61c17 -9 43 -14 78 -14c38 0 68 11 90 33c25 25 46 69 63 132c11 42 27 114 47 217c19 99 31 163 34 194
h-104l8 47h105c15 106 51 185 107 238c51 47 116 71 196 71c59 0 107 -15 142 -45c35 -29 53 -66 53 -110z" />
    <glyph glyph-name="onesuperior" unicode="&#xb9;" horiz-adv-x="330" 
d="M301 693l-4 -28c-49 0 -76 -18 -82 -54l-38 -239c-6 -36 16 -54 65 -54l-5 -28c-8 0 -24 0 -47 1s-44 1 -61 1s-38 0 -61 -1s-38 -1 -46 -1l5 29c49 0 76 18 81 53l38 239c5 35 -16 53 -65 53l5 29c8 0 23 0 46 -1s44 -1 61 -1s38 0 61 1s39 1 47 1z" />
    <glyph glyph-name="logicalnot" unicode="&#xac;" horiz-adv-x="549" 
d="M512 107h-70v196h-404v66h474v-262z" />
    <glyph glyph-name="mu" unicode="&#xb5;" horiz-adv-x="584" 
d="M574 40l-77 -48c-11 5 -22 11 -32 18c-23 17 -40 37 -50 62c-41 -54 -94 -81 -161 -81c-62 0 -103 25 -122 75c3 -40 12 -77 27 -111c11 -27 29 -53 52 -79c23 -27 43 -43 58 -50l-77 -48c-37 25 -64 69 -83 132c-11 39 -17 121 -17 248v319h84v-308c0 -38 11 -67 33 -88
c19 -18 45 -27 77 -27c47 0 84 16 113 48v375h84v-337c0 -41 30 -75 91 -100z" />
    <glyph glyph-name="trademark" unicode="&#x2122;" horiz-adv-x="923" 
d="M885 702l-4 -28c-19 0 -32 -2 -39 -5c-14 -5 -22 -17 -25 -34l-31 -196c-3 -15 2 -25 14 -30c5 -2 16 -3 32 -3l-4 -28c-6 0 -18 0 -35 1h-92c-17 -1 -29 -1 -35 -1l4 28c36 0 56 11 59 33l29 188l-148 -249h-35l-70 249l-29 -184c-4 -25 11 -37 45 -37l-4 -28
c-6 0 -16 0 -29 1h-82c-14 -1 -24 -1 -30 -1l4 28c35 0 55 12 59 37l32 198c3 15 -1 25 -12 29c-6 3 -18 4 -36 4l4 28c27 -1 47 -2 60 -2s33 1 60 2l71 -257l150 257c26 -1 46 -2 59 -2s33 1 58 2zM379 702l-15 -95h-27c2 13 3 23 3 29c0 20 -13 30 -39 30
c-25 0 -45 0 -60 -1l-35 -226c-3 -15 2 -25 14 -30c5 -2 16 -3 33 -3l-4 -28c-6 0 -18 0 -36 1h-92c-17 -1 -29 -1 -35 -1l4 28c36 0 56 11 59 33l35 226c-10 1 -28 1 -53 1c-20 0 -34 -5 -42 -16c-6 -7 -11 -22 -14 -43h-28c2 9 5 24 9 46c2 15 4 31 6 49c22 0 53 0 93 -1
s62 -1 66 -1c5 0 27 0 66 1c40 1 71 1 92 1z" />
    <glyph glyph-name="Eth" unicode="&#xd0;" horiz-adv-x="803" 
d="M740 396c0 -113 -35 -206 -104 -279c-78 -81 -183 -122 -316 -122c-23 0 -57 1 -103 3s-76 3 -91 3h-66c-26 -1 -43 -1 -51 -1l6 38c23 0 39 2 47 5c18 7 29 22 33 47l36 227h-116v49h124l36 227c1 4 1 8 1 12c0 19 -9 32 -27 37c-8 2 -24 3 -48 3l6 38h56
c30 -1 54 -1 71 -1c14 0 39 0 74 1c36 1 68 1 95 1c104 0 186 -25 246 -75c61 -50 91 -121 91 -213zM642 391c0 82 -25 144 -76 186c-47 39 -111 59 -194 59c-40 0 -76 -2 -107 -7l-42 -263h135v-49h-143l-29 -186c-1 -6 -1 -12 -1 -18c0 -32 17 -52 51 -61
c15 -4 49 -6 101 -6c95 0 170 32 225 96c53 62 80 145 80 249z" />
    <glyph glyph-name="onehalf" unicode="&#xbd;" horiz-adv-x="960" 
d="M335 693l-4 -28c-49 0 -76 -18 -82 -54l-38 -239c-6 -36 16 -54 65 -54l-5 -28c-8 0 -24 0 -47 1s-44 1 -61 1s-38 0 -61 -1s-38 -1 -46 -1l5 29c49 0 76 18 81 53l38 239c5 35 -16 53 -65 53l5 29c8 0 23 0 46 -1s44 -1 61 -1s38 0 61 1s39 1 47 1zM776 742l-586 -847
l-44 30l584 845zM899 58l-10 -58h-340l4 24c31 22 80 59 148 110c39 31 63 52 74 63c23 26 34 54 34 84c0 46 -26 69 -79 69c-58 0 -87 -24 -87 -72c0 -11 2 -20 7 -27l-29 -18c-9 6 -14 22 -14 48c0 33 11 62 33 85c27 31 68 46 122 46c43 0 76 -12 99 -36
c19 -19 28 -41 28 -64c0 -34 -11 -65 -33 -92c-12 -16 -38 -40 -79 -73c-26 -21 -65 -51 -118 -89h240z" />
    <glyph glyph-name="plusminus" unicode="&#xb1;" horiz-adv-x="549" 
d="M512 336h-202v-204h-70v204h-202v66h202v204h70v-204h202v-66zM512 0h-474v66h474v-66z" />
    <glyph glyph-name="Thorn" unicode="&#xde;" horiz-adv-x="615" 
d="M572 387c0 -71 -25 -129 -74 -174s-114 -67 -195 -67c-29 0 -56 4 -81 11l7 41c23 -8 49 -12 80 -12c55 0 97 19 128 57c27 34 41 78 41 133c0 39 -11 69 -34 92c-25 24 -60 36 -105 36c-32 0 -58 -2 -78 -5l-65 -409c-1 -5 -1 -9 -1 -13c0 -19 8 -31 25 -36
c8 -2 25 -3 52 -3l-6 -38c-7 0 -25 0 -53 1s-51 1 -69 1c-17 0 -40 0 -67 -1s-44 -1 -52 -1l6 38c23 0 39 2 48 5c18 7 29 22 33 47l80 503c1 5 1 9 1 14c0 18 -8 30 -23 35c-7 2 -21 3 -42 3l6 38c8 0 25 0 50 -1s47 -1 64 -1s39 0 64 1s42 1 50 1l-6 -38
c-24 0 -40 -2 -48 -5c-18 -7 -29 -22 -32 -47l-7 -48c51 3 85 4 104 4c60 0 108 -15 144 -46c37 -31 55 -69 55 -116z" />
    <glyph glyph-name="onequarter" unicode="&#xbc;" horiz-adv-x="960" 
d="M343 693l-4 -28c-49 0 -76 -18 -82 -54l-38 -239c-6 -36 16 -54 65 -54l-5 -28c-8 0 -24 0 -47 1s-44 1 -61 1s-38 0 -61 -1s-38 -1 -46 -1l5 29c49 0 76 18 81 53l38 239c5 35 -16 53 -65 53l5 29c8 0 23 0 46 -1s44 -1 61 -1s38 0 61 1s39 1 47 1zM776 742l-586 -847
l-44 30l584 845zM961 177l-8 -54h-127l-7 -41c-1 -4 -1 -8 -1 -11c0 -29 22 -43 66 -43l-5 -28c-8 0 -23 0 -46 1s-43 1 -60 1s-38 0 -62 -1c-23 -1 -39 -1 -47 -1l5 29c48 0 75 18 81 53l7 41h-224l6 41l292 252h41l-38 -239h127zM790 335l-183 -158h158z" />
    <glyph glyph-name="divide" unicode="&#xf7;" horiz-adv-x="549" 
d="M336 427c0 -33 -25 -57 -61 -57c-21 0 -37 7 -48 20c-9 11 -13 23 -13 37c0 28 20 56 60 56c41 0 62 -19 62 -56zM512 204h-474v66h474v-66zM335 47c0 -32 -23 -57 -62 -57c-21 0 -36 7 -46 20c-9 11 -13 23 -13 38c0 29 21 56 61 56s60 -19 60 -57z" />
    <glyph glyph-name="brokenbar" unicode="&#xa6;" horiz-adv-x="280" 
d="M180 366h-78l-1 400h78zM179 -233l-78 -1l1 400h77v-399z" />
    <glyph glyph-name="degree" unicode="&#xb0;" 
d="M443 556c0 -41 -14 -75 -41 -104c-27 -28 -61 -42 -103 -42c-87 0 -144 59 -144 146c0 41 14 75 41 103c28 29 62 43 103 43c45 0 80 -14 107 -43c25 -27 37 -61 37 -103zM401 556c0 60 -42 109 -102 109c-61 0 -100 -48 -100 -109c0 -31 9 -56 26 -76
c19 -22 43 -33 74 -33c64 0 102 45 102 109z" />
    <glyph glyph-name="thorn" unicode="&#xfe;" horiz-adv-x="547" 
d="M508 337c0 -82 -22 -156 -67 -223c-55 -82 -130 -123 -227 -123c-28 0 -62 6 -101 19c-3 -7 -14 -52 -33 -135c-3 -11 -4 -21 -4 -30c0 -21 9 -34 27 -39c6 -1 25 -2 58 -2l-6 -38c-8 0 -27 0 -56 1s-52 1 -71 1c-18 0 -42 0 -71 -1c-30 -1 -49 -1 -57 -1l6 38
c32 -1 54 2 65 11c11 8 21 28 30 59c27 94 61 232 100 414c49 225 73 353 73 383c0 29 -18 39 -73 39l6 38c38 0 80 6 126 19h38c-5 -44 -19 -120 -42 -227c-25 -115 -48 -211 -70 -288c20 50 50 97 90 140c53 57 107 85 162 85c65 0 97 -47 97 -140zM419 323
c0 29 -2 50 -7 63c-8 21 -24 32 -47 32c-47 0 -98 -48 -152 -143c-49 -84 -75 -154 -80 -211c23 -21 59 -31 108 -31c57 0 102 36 137 108c27 57 41 118 41 182z" />
    <glyph glyph-name="threequarters" unicode="&#xbe;" horiz-adv-x="960" 
d="M358 410c0 -77 -72 -128 -181 -128c-41 0 -75 11 -103 33c-19 15 -32 32 -39 50l25 26c13 -36 68 -69 117 -69c66 0 99 24 99 72c0 23 -16 42 -48 57c-26 11 -57 18 -92 21l5 31c91 15 137 46 137 93c0 35 -26 52 -78 52c-49 0 -73 -19 -73 -57c0 -11 3 -19 9 -26
l-29 -19c-11 9 -17 26 -16 51c1 27 11 50 31 69c25 24 62 36 109 36c81 0 127 -34 127 -83c0 -27 -15 -52 -46 -74c-21 -15 -43 -26 -68 -34c27 -5 51 -13 70 -26c29 -19 44 -44 44 -75zM811 742l-586 -847l-44 30l584 845zM961 177l-8 -54h-127l-7 -41c-1 -4 -1 -8 -1 -11
c0 -29 22 -43 66 -43l-5 -28c-8 0 -23 0 -46 1s-43 1 -60 1s-38 0 -62 -1c-23 -1 -39 -1 -47 -1l5 29c48 0 75 18 81 53l7 41h-224l6 41l292 252h41l-38 -239h127zM790 335l-183 -158h158z" />
    <glyph glyph-name="twosuperior" unicode="&#xb2;" horiz-adv-x="698" 
d="M355 348l-10 -58h-340l4 24c31 22 80 59 148 110c39 31 63 52 74 63c23 26 34 54 34 84c0 46 -26 69 -79 69c-58 0 -87 -24 -87 -72c0 -11 2 -20 7 -27l-29 -18c-9 6 -14 22 -14 48c0 33 11 62 33 85c27 31 68 46 122 46c43 0 76 -12 99 -36c19 -19 28 -41 28 -64
c0 -34 -11 -65 -33 -92c-12 -16 -38 -40 -79 -73c-26 -21 -65 -51 -118 -89h240z" />
    <glyph glyph-name="registered" unicode="&#xae;" horiz-adv-x="848" 
d="M791 336c0 -106 -35 -191 -105 -256c-69 -64 -156 -96 -261 -96c-97 0 -179 26 -246 77c-82 63 -123 154 -123 275c0 111 36 199 107 265c67 62 154 93 260 93c91 0 170 -26 239 -79c86 -65 129 -158 129 -279zM746 336c0 103 -37 185 -111 247c-63 53 -133 79 -210 79
c-94 0 -170 -25 -227 -75c-65 -57 -97 -138 -97 -245c0 -123 42 -212 126 -268c58 -39 127 -58 206 -58c91 0 166 28 223 84c60 59 90 137 90 236zM644 141c-9 -3 -21 -4 -36 -4c-34 0 -59 8 -76 24c-14 15 -28 31 -41 46c-31 37 -56 70 -75 101l-60 5v-100
c0 -27 22 -46 49 -46c4 0 8 0 11 1v-30c-16 0 -52 2 -89 2s-76 -2 -88 -2v30c37 0 55 15 55 45v254c0 29 -21 43 -64 43v30h37c21 -1 41 -1 60 -1c20 0 48 1 83 2c106 4 159 -31 159 -106c0 -26 -10 -50 -31 -71c-11 -10 -29 -24 -56 -41c86 -107 140 -159 162 -154v-28z
M501 428c0 54 -30 81 -91 81c-13 0 -31 -1 -54 -3v-165c16 -3 39 -5 68 -5c45 0 77 40 77 92z" />
    <glyph glyph-name="minus" unicode="&#x2212;" horiz-adv-x="527" 
d="M497 269l-10 -64h-456l10 64h456z" />
    <glyph glyph-name="eth" unicode="&#xf0;" horiz-adv-x="554" 
d="M590 617l-114 -28c21 -41 32 -92 32 -154c0 -128 -24 -232 -73 -313c-53 -88 -126 -132 -221 -132c-111 0 -167 60 -167 179c0 88 24 161 73 220s113 88 192 88c42 0 77 -11 104 -34c1 9 2 22 2 39c0 41 -7 70 -22 87l-170 -41l-4 46l143 34c-23 25 -61 38 -114 38
c-38 0 -77 -8 -117 -23l-3 44c41 17 85 26 132 26c79 0 140 -22 183 -65l140 33zM405 334c0 67 -32 100 -96 100c-65 0 -112 -35 -141 -105c-20 -48 -30 -105 -30 -171c0 -83 31 -125 93 -125c60 0 106 38 138 115c24 57 36 119 36 186z" />
    <glyph glyph-name="multiply" unicode="&#xd7;" horiz-adv-x="527" 
d="M481 387l-172 -148l126 -149l-54 -46l-125 149l-172 -148l-37 44l172 148l-126 149l54 46l125 -149l172 148z" />
    <glyph glyph-name="threesuperior" unicode="&#xb3;" horiz-adv-x="670" 
d="M326 410c0 -77 -72 -128 -181 -128c-41 0 -75 11 -103 33c-19 15 -32 32 -39 50l25 26c13 -36 68 -69 117 -69c66 0 99 24 99 72c0 23 -16 42 -48 57c-26 11 -57 18 -92 21l5 31c91 15 137 46 137 93c0 35 -26 52 -78 52c-49 0 -73 -19 -73 -57c0 -11 3 -19 9 -26
l-29 -19c-11 9 -17 26 -16 51c1 27 11 50 31 69c25 24 62 36 109 36c81 0 127 -34 127 -83c0 -27 -15 -52 -46 -74c-21 -15 -43 -26 -68 -34c27 -5 51 -13 70 -26c29 -19 44 -44 44 -75z" />
    <glyph glyph-name="copyright" unicode="&#xa9;" horiz-adv-x="848" 
d="M792 337c0 -107 -35 -193 -106 -258c-69 -63 -155 -94 -260 -94c-97 0 -179 25 -246 76c-83 63 -124 155 -124 276c0 111 36 199 107 264c67 62 154 93 260 93c91 0 171 -26 240 -78c86 -65 129 -158 129 -279zM747 337c0 103 -37 185 -112 247c-63 52 -133 78 -210 78
c-94 0 -170 -25 -227 -75c-64 -56 -96 -137 -96 -244c0 -123 42 -213 125 -268c58 -39 127 -58 206 -58c92 0 167 28 224 84c60 59 90 137 90 236zM573 148c-12 0 -31 -3 -56 -8s-48 -7 -69 -7c-77 0 -138 23 -181 68c-38 39 -57 85 -57 140c0 131 92 206 235 206
c63 0 108 -12 128 -12c-1 -15 -2 -31 -2 -50s1 -35 2 -49h-26c-1 31 -12 52 -32 62c-13 7 -38 11 -74 11c-61 0 -105 -14 -131 -43c-23 -25 -34 -63 -34 -116c0 -49 16 -91 47 -124c35 -37 83 -56 144 -56c33 0 56 8 68 23c7 9 10 24 11 45h27c-1 -11 -2 -26 -2 -45
s1 -34 2 -45z" />
    <glyph glyph-name="Aacute" unicode="&#xc1;" horiz-adv-x="702" 
d="M576 871l-190 -147l-25 26l169 168zM680 38l-6 -38c-8 0 -25 0 -52 1c-26 1 -48 1 -65 1s-39 0 -66 -1c-26 -1 -43 -1 -51 -1l6 38c47 3 61 11 61 42c0 11 -3 30 -8 57l-25 126h-246l-67 -129c-13 -25 -20 -45 -20 -60c0 -24 21 -36 62 -36l-5 -38c-8 0 -24 0 -48 1
c-23 1 -44 1 -61 1s-38 0 -61 -1s-39 -1 -46 -1l5 38c29 -1 51 7 66 23c9 9 24 33 45 72l295 550h73l128 -543c11 -45 20 -73 28 -83c10 -13 29 -19 58 -19zM464 309l-65 283l-148 -283h213z" />
    <glyph glyph-name="Acircumflex" unicode="&#xc2;" horiz-adv-x="702" 
d="M581 752l-32 -30l-85 116h-21l-170 -116l-24 30l194 161h55zM680 38l-6 -38c-8 0 -25 0 -52 1c-26 1 -48 1 -65 1s-39 0 -66 -1c-26 -1 -43 -1 -51 -1l6 38c47 3 61 11 61 42c0 11 -3 30 -8 57l-25 126h-246l-67 -129c-13 -25 -20 -45 -20 -60c0 -24 21 -36 62 -36
l-5 -38c-8 0 -24 0 -48 1c-23 1 -44 1 -61 1s-38 0 -61 -1s-39 -1 -46 -1l5 38c29 -1 51 7 66 23c9 9 24 33 45 72l295 550h73l128 -543c11 -45 20 -73 28 -83c10 -13 29 -19 58 -19zM464 309l-65 283l-148 -283h213z" />
    <glyph glyph-name="Adieresis" unicode="&#xc4;" horiz-adv-x="702" 
d="M579 818c-4 -31 -31 -50 -60 -50c-33 0 -47 17 -42 50c4 29 30 51 59 51c33 0 48 -17 43 -51zM384 818c-4 -31 -31 -50 -60 -50c-33 0 -47 17 -42 50c4 29 30 51 59 51c33 0 48 -17 43 -51zM680 38l-6 -38c-8 0 -25 0 -52 1c-26 1 -48 1 -65 1s-39 0 -66 -1
c-26 -1 -43 -1 -51 -1l6 38c47 3 61 11 61 42c0 11 -3 30 -8 57l-25 126h-246l-67 -129c-13 -25 -20 -45 -20 -60c0 -24 21 -36 62 -36l-5 -38c-8 0 -24 0 -48 1c-23 1 -44 1 -61 1s-38 0 -61 -1s-39 -1 -46 -1l5 38c29 -1 51 7 66 23c9 9 24 33 45 72l295 550h73l128 -543
c11 -45 20 -73 28 -83c10 -13 29 -19 58 -19zM464 309l-65 283l-148 -283h213z" />
    <glyph glyph-name="Agrave" unicode="&#xc0;" horiz-adv-x="702" 
d="M485 750l-25 -26l-190 147l46 47zM680 38l-6 -38c-8 0 -25 0 -52 1c-26 1 -48 1 -65 1s-39 0 -66 -1c-26 -1 -43 -1 -51 -1l6 38c47 3 61 11 61 42c0 11 -3 30 -8 57l-25 126h-246l-67 -129c-13 -25 -20 -45 -20 -60c0 -24 21 -36 62 -36l-5 -38c-8 0 -24 0 -48 1
c-23 1 -44 1 -61 1s-38 0 -61 -1s-39 -1 -46 -1l5 38c29 -1 51 7 66 23c9 9 24 33 45 72l295 550h73l128 -543c11 -45 20 -73 28 -83c10 -13 29 -19 58 -19zM464 309l-65 283l-148 -283h213z" />
    <glyph glyph-name="Aring" unicode="&#xc5;" horiz-adv-x="702" 
d="M564 854c0 -40 -17 -70 -50 -91c-23 -15 -51 -22 -84 -22c-27 0 -49 7 -67 22c-21 17 -31 42 -31 73c0 32 13 59 40 80c27 22 56 33 89 33c63 0 103 -34 103 -95zM680 38l-6 -38c-8 0 -25 0 -52 1c-26 1 -48 1 -65 1s-39 0 -66 -1c-26 -1 -43 -1 -51 -1l6 38
c47 3 61 11 61 42c0 11 -3 30 -8 57l-25 126h-246l-67 -129c-13 -25 -20 -45 -20 -60c0 -24 21 -36 62 -36l-5 -38c-8 0 -24 0 -48 1c-23 1 -44 1 -61 1s-38 0 -61 -1s-39 -1 -46 -1l5 38c29 -1 51 7 66 23c9 9 24 33 45 72l295 550h73l128 -543c11 -45 20 -73 28 -83
c10 -13 29 -19 58 -19zM518 852c0 41 -20 62 -61 62c-48 0 -79 -31 -79 -79c0 -41 20 -61 60 -61c53 0 80 26 80 78zM464 309l-65 283l-148 -283h213z" />
    <glyph glyph-name="Atilde" unicode="&#xc3;" horiz-adv-x="702" 
d="M620 847c-41 -50 -82 -75 -123 -75c-17 0 -36 4 -59 11c-23 8 -40 12 -52 12c-33 0 -61 -16 -85 -49l-25 27c15 21 34 39 58 55c28 19 55 28 82 28c14 0 32 -4 55 -12s41 -12 52 -12c27 0 50 12 70 36zM680 38l-6 -38c-8 0 -25 0 -52 1c-26 1 -48 1 -65 1s-39 0 -66 -1
c-26 -1 -43 -1 -51 -1l6 38c47 3 61 11 61 42c0 11 -3 30 -8 57l-25 126h-246l-67 -129c-13 -25 -20 -45 -20 -60c0 -24 21 -36 62 -36l-5 -38c-8 0 -24 0 -48 1c-23 1 -44 1 -61 1s-38 0 -61 -1s-39 -1 -46 -1l5 38c29 -1 51 7 66 23c9 9 24 33 45 72l295 550h73l128 -543
c11 -45 20 -73 28 -83c10 -13 29 -19 58 -19zM464 309l-65 283l-148 -283h213z" />
    <glyph glyph-name="Ccedilla" unicode="&#xc7;" horiz-adv-x="652" 
d="M685 675c-3 -16 -8 -42 -15 -79c-3 -19 -6 -44 -9 -75h-38c3 11 4 21 4 30c0 58 -49 87 -147 87c-103 0 -182 -37 -239 -111c-49 -65 -74 -145 -74 -242c0 -74 21 -133 64 -177s100 -66 169 -66c107 0 150 25 161 106h38c-3 -13 -7 -36 -12 -69l-9 -69
c-28 -4 -80 -9 -156 -16l-18 -37c49 -12 73 -36 73 -73c0 -29 -13 -52 -39 -70c-25 -19 -53 -28 -83 -28c-43 0 -89 19 -105 40l44 44c31 -23 61 -34 88 -34c26 0 39 10 39 29c0 24 -25 41 -76 50l39 78c-97 1 -174 27 -231 79c-56 52 -84 122 -84 209c0 123 38 222 115 295
c77 74 177 111 300 111c34 0 69 -2 106 -6c39 -5 60 -7 63 -7c9 0 19 0 32 1z" />
    <glyph glyph-name="Eacute" unicode="&#xc9;" horiz-adv-x="579" 
d="M466 871l-190 -147l-25 26l169 168zM574 685c-3 -12 -7 -34 -13 -67c-3 -19 -6 -41 -9 -68h-38c2 13 3 23 3 31c0 24 -10 39 -30 46c-15 5 -50 8 -105 8c-38 0 -77 -1 -117 -2l-40 -259h95c53 0 87 3 100 9c16 8 27 29 32 62h38c-3 -17 -10 -50 -19 -100
c-3 -23 -7 -57 -13 -101h-38c3 15 4 28 4 37c0 21 -8 35 -24 42c-13 5 -41 7 -85 7h-97l-34 -211c-1 -10 -2 -19 -2 -26c0 -21 9 -34 26 -39c12 -3 42 -5 91 -5c65 0 108 4 128 13c29 13 48 43 55 90h38c-3 -15 -8 -41 -14 -76c-3 -19 -6 -44 -10 -76l-368 2
c-17 0 -40 0 -67 -1s-45 -1 -53 -1l6 38c24 0 40 2 48 5c18 7 29 22 33 47l79 503c1 5 1 9 1 13c0 19 -8 31 -25 36c-7 2 -24 3 -51 3l5 38h57c30 -1 54 -1 71 -1c14 0 39 0 75 1h93c77 0 135 1 174 2z" />
    <glyph glyph-name="Ecircumflex" unicode="&#xca;" horiz-adv-x="579" 
d="M532 752l-32 -30l-85 116h-21l-170 -116l-24 30l194 161h55zM574 685c-3 -12 -7 -34 -13 -67c-3 -19 -6 -41 -9 -68h-38c2 13 3 23 3 31c0 24 -10 39 -30 46c-15 5 -50 8 -105 8c-38 0 -77 -1 -117 -2l-40 -259h95c53 0 87 3 100 9c16 8 27 29 32 62h38
c-3 -17 -10 -50 -19 -100c-3 -23 -7 -57 -13 -101h-38c3 15 4 28 4 37c0 21 -8 35 -24 42c-13 5 -41 7 -85 7h-97l-34 -211c-1 -10 -2 -19 -2 -26c0 -21 9 -34 26 -39c12 -3 42 -5 91 -5c65 0 108 4 128 13c29 13 48 43 55 90h38c-3 -15 -8 -41 -14 -76
c-3 -19 -6 -44 -10 -76l-368 2c-17 0 -40 0 -67 -1s-45 -1 -53 -1l6 38c24 0 40 2 48 5c18 7 29 22 33 47l79 503c1 5 1 9 1 13c0 19 -8 31 -25 36c-7 2 -24 3 -51 3l5 38h57c30 -1 54 -1 71 -1c14 0 39 0 75 1h93c77 0 135 1 174 2z" />
    <glyph glyph-name="Edieresis" unicode="&#xcb;" horiz-adv-x="579" 
d="M521 818c-4 -31 -31 -50 -60 -50c-33 0 -47 17 -42 50c4 29 30 51 59 51c33 0 48 -17 43 -51zM326 818c-4 -31 -31 -50 -60 -50c-33 0 -47 17 -42 50c4 29 30 51 59 51c33 0 48 -17 43 -51zM574 685c-3 -12 -7 -34 -13 -67c-3 -19 -6 -41 -9 -68h-38c2 13 3 23 3 31
c0 24 -10 39 -30 46c-15 5 -50 8 -105 8c-38 0 -77 -1 -117 -2l-40 -259h95c53 0 87 3 100 9c16 8 27 29 32 62h38c-3 -17 -10 -50 -19 -100c-3 -23 -7 -57 -13 -101h-38c3 15 4 28 4 37c0 21 -8 35 -24 42c-13 5 -41 7 -85 7h-97l-34 -211c-1 -10 -2 -19 -2 -26
c0 -21 9 -34 26 -39c12 -3 42 -5 91 -5c65 0 108 4 128 13c29 13 48 43 55 90h38c-3 -15 -8 -41 -14 -76c-3 -19 -6 -44 -10 -76l-368 2c-17 0 -40 0 -67 -1s-45 -1 -53 -1l6 38c24 0 40 2 48 5c18 7 29 22 33 47l79 503c1 5 1 9 1 13c0 19 -8 31 -25 36c-7 2 -24 3 -51 3
l5 38h57c30 -1 54 -1 71 -1c14 0 39 0 75 1h93c77 0 135 1 174 2z" />
    <glyph glyph-name="Egrave" unicode="&#xc8;" horiz-adv-x="579" 
d="M445 750l-25 -26l-190 147l46 47zM574 685c-3 -12 -7 -34 -13 -67c-3 -19 -6 -41 -9 -68h-38c2 13 3 23 3 31c0 24 -10 39 -30 46c-15 5 -50 8 -105 8c-38 0 -77 -1 -117 -2l-40 -259h95c53 0 87 3 100 9c16 8 27 29 32 62h38c-3 -17 -10 -50 -19 -100
c-3 -23 -7 -57 -13 -101h-38c3 15 4 28 4 37c0 21 -8 35 -24 42c-13 5 -41 7 -85 7h-97l-34 -211c-1 -10 -2 -19 -2 -26c0 -21 9 -34 26 -39c12 -3 42 -5 91 -5c65 0 108 4 128 13c29 13 48 43 55 90h38c-3 -15 -8 -41 -14 -76c-3 -19 -6 -44 -10 -76l-368 2
c-17 0 -40 0 -67 -1s-45 -1 -53 -1l6 38c24 0 40 2 48 5c18 7 29 22 33 47l79 503c1 5 1 9 1 13c0 19 -8 31 -25 36c-7 2 -24 3 -51 3l5 38h57c30 -1 54 -1 71 -1c14 0 39 0 75 1h93c77 0 135 1 174 2z" />
    <glyph glyph-name="Iacute" unicode="&#xcd;" horiz-adv-x="327" 
d="M386 871l-190 -147l-25 26l169 168zM353 683l-6 -38c-23 0 -39 -2 -47 -5c-18 -7 -29 -22 -33 -47l-80 -503c-1 -5 -1 -10 -1 -14c0 -18 8 -30 23 -35c6 -2 20 -3 42 -3l-6 -38c-8 0 -25 0 -50 1s-47 1 -64 1s-39 0 -64 -1s-42 -1 -50 -1l6 38c23 0 39 2 47 5
c18 7 29 22 33 47l80 503c1 5 1 9 1 14c0 18 -8 30 -23 35c-7 2 -21 3 -42 3l6 38c8 0 25 0 50 -1s47 -1 64 -1s39 0 64 1s42 1 50 1z" />
    <glyph glyph-name="Icircumflex" unicode="&#xce;" horiz-adv-x="327" 
d="M401 752l-32 -30l-85 116h-21l-170 -116l-24 30l194 161h55zM353 683l-6 -38c-23 0 -39 -2 -47 -5c-18 -7 -29 -22 -33 -47l-80 -503c-1 -5 -1 -10 -1 -14c0 -18 8 -30 23 -35c6 -2 20 -3 42 -3l-6 -38c-8 0 -25 0 -50 1s-47 1 -64 1s-39 0 -64 -1s-42 -1 -50 -1l6 38
c23 0 39 2 47 5c18 7 29 22 33 47l80 503c1 5 1 9 1 14c0 18 -8 30 -23 35c-7 2 -21 3 -42 3l6 38c8 0 25 0 50 -1s47 -1 64 -1s39 0 64 1s42 1 50 1z" />
    <glyph glyph-name="Idieresis" unicode="&#xcf;" horiz-adv-x="327" 
d="M401 818c-4 -31 -31 -50 -60 -50c-33 0 -47 17 -42 50c4 29 30 51 59 51c33 0 48 -17 43 -51zM206 818c-4 -31 -31 -50 -60 -50c-33 0 -47 17 -42 50c4 29 30 51 59 51c33 0 48 -17 43 -51zM353 683l-6 -38c-23 0 -39 -2 -47 -5c-18 -7 -29 -22 -33 -47l-80 -503
c-1 -5 -1 -10 -1 -14c0 -18 8 -30 23 -35c6 -2 20 -3 42 -3l-6 -38c-8 0 -25 0 -50 1s-47 1 -64 1s-39 0 -64 -1s-42 -1 -50 -1l6 38c23 0 39 2 47 5c18 7 29 22 33 47l80 503c1 5 1 9 1 14c0 18 -8 30 -23 35c-7 2 -21 3 -42 3l6 38c8 0 25 0 50 -1s47 -1 64 -1s39 0 64 1
s42 1 50 1z" />
    <glyph glyph-name="Igrave" unicode="&#xcc;" horiz-adv-x="327" 
d="M306 750l-25 -26l-190 147l46 47zM353 683l-6 -38c-23 0 -39 -2 -47 -5c-18 -7 -29 -22 -33 -47l-80 -503c-1 -5 -1 -10 -1 -14c0 -18 8 -30 23 -35c6 -2 20 -3 42 -3l-6 -38c-8 0 -25 0 -50 1s-47 1 -64 1s-39 0 -64 -1s-42 -1 -50 -1l6 38c23 0 39 2 47 5
c18 7 29 22 33 47l80 503c1 5 1 9 1 14c0 18 -8 30 -23 35c-7 2 -21 3 -42 3l6 38c8 0 25 0 50 -1s47 -1 64 -1s39 0 64 1s42 1 50 1z" />
    <glyph glyph-name="Ntilde" unicode="&#xd1;" horiz-adv-x="766" 
d="M644 847c-41 -50 -82 -75 -123 -75c-17 0 -36 4 -59 11c-23 8 -40 12 -52 12c-33 0 -61 -16 -85 -49l-25 27c15 21 34 39 58 55c28 19 55 28 82 28c14 0 32 -4 55 -12s41 -12 52 -12c27 0 50 12 70 36zM795 683l-6 -38c-47 0 -74 -22 -81 -66l-92 -579h-49l-337 565
l-73 -461c-1 -6 -1 -11 -1 -16c0 -21 9 -36 26 -43c11 -5 28 -7 52 -7l-6 -38c-39 1 -76 2 -113 2c-17 0 -37 0 -59 -1c-21 -1 -36 -1 -44 -1l6 38c47 0 75 22 82 66l73 458c2 12 3 22 3 31c0 22 -7 37 -21 44c-11 5 -31 8 -62 8l6 38c27 -1 56 -1 86 -1s60 0 91 1l307 -531
l68 427c1 6 1 11 1 16c0 21 -9 36 -26 43c-11 5 -28 7 -52 7l6 38c39 -1 76 -2 113 -2c18 0 38 0 59 1s36 1 43 1z" />
    <glyph glyph-name="Oacute" unicode="&#xd3;" horiz-adv-x="842" 
d="M610 871l-190 -147l-25 26l169 168zM788 419c0 -120 -35 -221 -104 -302c-76 -89 -179 -134 -309 -134c-87 0 -157 26 -210 77s-79 119 -79 204c0 125 35 228 106 308c76 86 180 129 311 129c95 0 168 -27 218 -81c45 -49 67 -116 67 -201zM687 417
c0 155 -66 233 -197 233c-97 0 -172 -36 -225 -109c-52 -70 -78 -164 -78 -283c0 -64 15 -115 44 -154c35 -47 89 -70 162 -70c84 0 154 35 210 105c56 71 84 163 84 278z" />
    <glyph glyph-name="Ocircumflex" unicode="&#xd4;" horiz-adv-x="842" 
d="M661 752l-32 -30l-85 116h-21l-170 -116l-24 30l194 161h55zM788 419c0 -120 -35 -221 -104 -302c-76 -89 -179 -134 -309 -134c-87 0 -157 26 -210 77s-79 119 -79 204c0 125 35 228 106 308c76 86 180 129 311 129c95 0 168 -27 218 -81c45 -49 67 -116 67 -201z
M687 417c0 155 -66 233 -197 233c-97 0 -172 -36 -225 -109c-52 -70 -78 -164 -78 -283c0 -64 15 -115 44 -154c35 -47 89 -70 162 -70c84 0 154 35 210 105c56 71 84 163 84 278z" />
    <glyph glyph-name="Odieresis" unicode="&#xd6;" horiz-adv-x="842" 
d="M663 818c-4 -31 -31 -50 -60 -50c-33 0 -47 17 -42 50c4 29 30 51 59 51c33 0 48 -17 43 -51zM468 818c-4 -31 -31 -50 -60 -50c-33 0 -47 17 -42 50c4 29 30 51 59 51c33 0 48 -17 43 -51zM788 419c0 -120 -35 -221 -104 -302c-76 -89 -179 -134 -309 -134
c-87 0 -157 26 -210 77s-79 119 -79 204c0 125 35 228 106 308c76 86 180 129 311 129c95 0 168 -27 218 -81c45 -49 67 -116 67 -201zM687 417c0 155 -66 233 -197 233c-97 0 -172 -36 -225 -109c-52 -70 -78 -164 -78 -283c0 -64 15 -115 44 -154c35 -47 89 -70 162 -70
c84 0 154 35 210 105c56 71 84 163 84 278z" />
    <glyph glyph-name="Ograve" unicode="&#xd2;" horiz-adv-x="842" 
d="M588 750l-25 -26l-190 147l46 47zM788 419c0 -120 -35 -221 -104 -302c-76 -89 -179 -134 -309 -134c-87 0 -157 26 -210 77s-79 119 -79 204c0 125 35 228 106 308c76 86 180 129 311 129c95 0 168 -27 218 -81c45 -49 67 -116 67 -201zM687 417c0 155 -66 233 -197 233
c-97 0 -172 -36 -225 -109c-52 -70 -78 -164 -78 -283c0 -64 15 -115 44 -154c35 -47 89 -70 162 -70c84 0 154 35 210 105c56 71 84 163 84 278z" />
    <glyph glyph-name="Otilde" unicode="&#xd5;" horiz-adv-x="842" 
d="M684 847c-41 -50 -82 -75 -123 -75c-17 0 -36 4 -59 11c-23 8 -40 12 -52 12c-33 0 -61 -16 -85 -49l-25 27c15 21 34 39 58 55c28 19 55 28 82 28c14 0 32 -4 55 -12s41 -12 52 -12c27 0 50 12 70 36zM788 419c0 -120 -35 -221 -104 -302c-76 -89 -179 -134 -309 -134
c-87 0 -157 26 -210 77s-79 119 -79 204c0 125 35 228 106 308c76 86 180 129 311 129c95 0 168 -27 218 -81c45 -49 67 -116 67 -201zM687 417c0 155 -66 233 -197 233c-97 0 -172 -36 -225 -109c-52 -70 -78 -164 -78 -283c0 -64 15 -115 44 -154c35 -47 89 -70 162 -70
c84 0 154 35 210 105c56 71 84 163 84 278z" />
    <glyph glyph-name="Scaron" unicode="&#x160;" horiz-adv-x="523" 
d="M511 828l-163 -79h-44l-137 79l30 28l116 -51h44l132 51zM500 667c-3 -13 -7 -37 -13 -71c-3 -19 -6 -42 -9 -71h-36c1 9 2 17 2 25c0 60 -42 90 -126 90c-99 0 -149 -38 -149 -113c0 -35 13 -63 39 -85c14 -12 46 -30 97 -54c54 -26 91 -47 110 -64
c35 -31 53 -69 53 -115c0 -58 -22 -107 -67 -148c-48 -44 -110 -66 -185 -66c-37 0 -72 5 -106 14c-33 9 -54 14 -61 14h-20c3 15 6 41 10 76c1 19 3 44 6 76h37c-1 -7 -1 -14 -1 -21c0 -75 47 -112 140 -112c99 0 161 52 161 132c0 35 -12 65 -37 88c-20 19 -53 38 -100 58
c-49 21 -85 43 -108 64c-32 31 -48 69 -48 116c0 61 24 108 71 142c42 30 95 45 159 45c31 0 63 -3 98 -10s57 -10 65 -10h18z" />
    <glyph glyph-name="Uacute" unicode="&#xda;" horiz-adv-x="766" 
d="M611 871l-190 -147l-25 26l169 168zM798 683l-6 -38c-22 0 -38 -3 -48 -8c-17 -9 -28 -27 -33 -55l-55 -350c-25 -163 -132 -245 -319 -245c-71 0 -128 15 -170 44c-45 31 -68 77 -68 137c0 13 1 27 3 42l61 383c1 5 1 10 1 14c0 18 -8 30 -23 35c-6 2 -20 3 -42 3l6 38
c8 0 25 0 50 -1s47 -1 64 -1c18 0 40 0 65 1s42 1 49 1l-6 -38c-23 0 -39 -2 -47 -5c-18 -7 -29 -22 -33 -47l-56 -353c-3 -16 -4 -31 -4 -45c0 -98 60 -147 180 -147c135 0 212 64 232 192l54 342c1 6 1 11 1 16c0 31 -22 47 -67 47l6 38c37 -1 71 -2 102 -2
c17 0 37 0 58 1c22 1 37 1 45 1z" />
    <glyph glyph-name="Ucircumflex" unicode="&#xdb;" horiz-adv-x="766" 
d="M635 752l-32 -30l-85 116h-21l-170 -116l-24 30l194 161h55zM798 683l-6 -38c-22 0 -38 -3 -48 -8c-17 -9 -28 -27 -33 -55l-55 -350c-25 -163 -132 -245 -319 -245c-71 0 -128 15 -170 44c-45 31 -68 77 -68 137c0 13 1 27 3 42l61 383c1 5 1 10 1 14c0 18 -8 30 -23 35
c-6 2 -20 3 -42 3l6 38c8 0 25 0 50 -1s47 -1 64 -1c18 0 40 0 65 1s42 1 49 1l-6 -38c-23 0 -39 -2 -47 -5c-18 -7 -29 -22 -33 -47l-56 -353c-3 -16 -4 -31 -4 -45c0 -98 60 -147 180 -147c135 0 212 64 232 192l54 342c1 6 1 11 1 16c0 31 -22 47 -67 47l6 38
c37 -1 71 -2 102 -2c17 0 37 0 58 1c22 1 37 1 45 1z" />
    <glyph glyph-name="Udieresis" unicode="&#xdc;" horiz-adv-x="766" 
d="M621 818c-4 -31 -31 -50 -60 -50c-33 0 -47 17 -42 50c4 29 30 51 59 51c33 0 48 -17 43 -51zM426 818c-4 -31 -31 -50 -60 -50c-33 0 -47 17 -42 50c4 29 30 51 59 51c33 0 48 -17 43 -51zM798 683l-6 -38c-22 0 -38 -3 -48 -8c-17 -9 -28 -27 -33 -55l-55 -350
c-25 -163 -132 -245 -319 -245c-71 0 -128 15 -170 44c-45 31 -68 77 -68 137c0 13 1 27 3 42l61 383c1 5 1 10 1 14c0 18 -8 30 -23 35c-6 2 -20 3 -42 3l6 38c8 0 25 0 50 -1s47 -1 64 -1c18 0 40 0 65 1s42 1 49 1l-6 -38c-23 0 -39 -2 -47 -5c-18 -7 -29 -22 -33 -47
l-56 -353c-3 -16 -4 -31 -4 -45c0 -98 60 -147 180 -147c135 0 212 64 232 192l54 342c1 6 1 11 1 16c0 31 -22 47 -67 47l6 38c37 -1 71 -2 102 -2c17 0 37 0 58 1c22 1 37 1 45 1z" />
    <glyph glyph-name="Ugrave" unicode="&#xd9;" horiz-adv-x="766" 
d="M541 750l-25 -26l-190 147l46 47zM798 683l-6 -38c-22 0 -38 -3 -48 -8c-17 -9 -28 -27 -33 -55l-55 -350c-25 -163 -132 -245 -319 -245c-71 0 -128 15 -170 44c-45 31 -68 77 -68 137c0 13 1 27 3 42l61 383c1 5 1 10 1 14c0 18 -8 30 -23 35c-6 2 -20 3 -42 3l6 38
c8 0 25 0 50 -1s47 -1 64 -1c18 0 40 0 65 1s42 1 49 1l-6 -38c-23 0 -39 -2 -47 -5c-18 -7 -29 -22 -33 -47l-56 -353c-3 -16 -4 -31 -4 -45c0 -98 60 -147 180 -147c135 0 212 64 232 192l54 342c1 6 1 11 1 16c0 31 -22 47 -67 47l6 38c37 -1 71 -2 102 -2
c17 0 37 0 58 1c22 1 37 1 45 1z" />
    <glyph glyph-name="Yacute" unicode="&#xdd;" horiz-adv-x="570" 
d="M485 871l-190 -147l-25 26l169 168zM695 682l-6 -35c-41 0 -83 -24 -128 -73l-216 -235l-39 -249c-1 -5 -1 -9 -1 -13c0 -19 9 -31 26 -36c7 -2 25 -3 52 -3l-6 -38c-8 0 -27 0 -57 1s-54 1 -71 1s-41 0 -71 -1c-29 -1 -48 -1 -56 -1l6 38c29 0 48 2 57 5
c20 7 32 22 36 47l36 215l-148 264c-33 60 -55 76 -96 75l6 39c8 0 24 0 48 -1s45 -1 62 -1c13 0 35 0 65 1c23 1 40 1 51 0l-6 -37c-33 1 -49 -10 -49 -31c0 -8 3 -16 8 -25l119 -211l174 190c16 17 25 31 26 41c4 25 -14 37 -55 37l6 37c8 0 24 0 49 -1s47 -1 64 -1
c13 0 35 0 64 1c23 1 39 1 50 0z" />
    <glyph glyph-name="Ydieresis" unicode="&#x178;" horiz-adv-x="570" 
d="M512 818c-4 -31 -31 -50 -60 -50c-33 0 -47 17 -42 50c4 29 30 51 59 51c33 0 48 -17 43 -51zM317 818c-4 -31 -31 -50 -60 -50c-33 0 -47 17 -42 50c4 29 30 51 59 51c33 0 48 -17 43 -51zM695 682l-6 -35c-41 0 -83 -24 -128 -73l-216 -235l-39 -249
c-1 -5 -1 -9 -1 -13c0 -19 9 -31 26 -36c7 -2 25 -3 52 -3l-6 -38c-8 0 -27 0 -57 1s-54 1 -71 1s-41 0 -71 -1c-29 -1 -48 -1 -56 -1l6 38c29 0 48 2 57 5c20 7 32 22 36 47l36 215l-148 264c-33 60 -55 76 -96 75l6 39c8 0 24 0 48 -1s45 -1 62 -1c13 0 35 0 65 1
c23 1 40 1 51 0l-6 -37c-33 1 -49 -10 -49 -31c0 -8 3 -16 8 -25l119 -211l174 190c16 17 25 31 26 41c4 25 -14 37 -55 37l6 37c8 0 24 0 49 -1s47 -1 64 -1c13 0 35 0 64 1c23 1 39 1 50 0z" />
    <glyph glyph-name="Zcaron" unicode="&#x17d;" horiz-adv-x="617" 
d="M574 828l-163 -79h-44l-137 79l30 28l116 -51h44l132 51zM641 683l-6 -38l-476 -592h247c52 0 87 6 104 18c18 13 30 40 37 81h37c-3 -15 -7 -41 -14 -76c-3 -19 -7 -44 -10 -76c-62 0 -150 0 -264 1s-176 1 -187 1c-3 0 -30 -1 -81 -2l6 38l475 592h-215
c-55 0 -90 -4 -103 -13c-17 -10 -28 -37 -35 -82h-37c3 15 7 40 13 75c3 19 6 44 10 75c75 -1 210 -2 405 -3c37 0 69 0 94 1z" />
    <glyph glyph-name="aacute" unicode="&#xe1;" horiz-adv-x="533" 
d="M475 681l-190 -147l-25 26l169 168zM514 477c-16 -28 -38 -96 -65 -203c-25 -100 -39 -164 -41 -191c-2 -28 5 -42 21 -42c19 0 38 8 56 23l16 -29c-31 -25 -68 -38 -111 -38c-42 0 -63 17 -63 51c0 29 10 74 29 134c-19 -41 -46 -80 -79 -115c-49 -51 -100 -76 -152 -76
c-59 0 -89 45 -89 134c0 69 18 137 55 205c53 98 132 147 237 147c49 0 87 -10 115 -30l31 30h40zM406 397c-17 22 -49 33 -96 33c-58 0 -106 -39 -143 -117c-31 -66 -47 -129 -47 -190c0 -55 14 -82 42 -82c45 0 96 49 155 148c50 85 80 155 89 208z" />
    <glyph glyph-name="acircumflex" unicode="&#xe2;" horiz-adv-x="533" 
d="M512 562l-32 -30l-85 116h-21l-170 -116l-24 30l194 161h55zM514 477c-16 -28 -38 -96 -65 -203c-25 -100 -39 -164 -41 -191c-2 -28 5 -42 21 -42c19 0 38 8 56 23l16 -29c-31 -25 -68 -38 -111 -38c-42 0 -63 17 -63 51c0 29 10 74 29 134c-19 -41 -46 -80 -79 -115
c-49 -51 -100 -76 -152 -76c-59 0 -89 45 -89 134c0 69 18 137 55 205c53 98 132 147 237 147c49 0 87 -10 115 -30l31 30h40zM406 397c-17 22 -49 33 -96 33c-58 0 -106 -39 -143 -117c-31 -66 -47 -129 -47 -190c0 -55 14 -82 42 -82c45 0 96 49 155 148
c50 85 80 155 89 208z" />
    <glyph glyph-name="adieresis" unicode="&#xe4;" horiz-adv-x="533" 
d="M512 628c-4 -31 -31 -50 -60 -50c-33 0 -47 17 -42 50c4 29 30 51 59 51c33 0 48 -17 43 -51zM317 628c-4 -31 -31 -50 -60 -50c-33 0 -47 17 -42 50c4 29 30 51 59 51c33 0 48 -17 43 -51zM514 477c-16 -28 -38 -96 -65 -203c-25 -100 -39 -164 -41 -191
c-2 -28 5 -42 21 -42c19 0 38 8 56 23l16 -29c-31 -25 -68 -38 -111 -38c-42 0 -63 17 -63 51c0 29 10 74 29 134c-19 -41 -46 -80 -79 -115c-49 -51 -100 -76 -152 -76c-59 0 -89 45 -89 134c0 69 18 137 55 205c53 98 132 147 237 147c49 0 87 -10 115 -30l31 30h40z
M406 397c-17 22 -49 33 -96 33c-58 0 -106 -39 -143 -117c-31 -66 -47 -129 -47 -190c0 -55 14 -82 42 -82c45 0 96 49 155 148c50 85 80 155 89 208z" />
    <glyph glyph-name="agrave" unicode="&#xe0;" horiz-adv-x="533" 
d="M435 560l-25 -26l-190 147l46 47zM514 477c-16 -28 -38 -96 -65 -203c-25 -100 -39 -164 -41 -191c-2 -28 5 -42 21 -42c19 0 38 8 56 23l16 -29c-31 -25 -68 -38 -111 -38c-42 0 -63 17 -63 51c0 29 10 74 29 134c-19 -41 -46 -80 -79 -115c-49 -51 -100 -76 -152 -76
c-59 0 -89 45 -89 134c0 69 18 137 55 205c53 98 132 147 237 147c49 0 87 -10 115 -30l31 30h40zM406 397c-17 22 -49 33 -96 33c-58 0 -106 -39 -143 -117c-31 -66 -47 -129 -47 -190c0 -55 14 -82 42 -82c45 0 96 49 155 148c50 85 80 155 89 208z" />
    <glyph glyph-name="aring" unicode="&#xe5;" horiz-adv-x="533" 
d="M474 664c0 -40 -17 -70 -50 -91c-23 -15 -51 -22 -84 -22c-27 0 -49 7 -67 22c-21 17 -31 42 -31 73c0 32 13 59 40 80c27 22 56 33 89 33c63 0 103 -34 103 -95zM514 477c-16 -28 -38 -96 -65 -203c-25 -100 -39 -164 -41 -191c-2 -28 5 -42 21 -42c19 0 38 8 56 23
l16 -29c-31 -25 -68 -38 -111 -38c-42 0 -63 17 -63 51c0 29 10 74 29 134c-19 -41 -46 -80 -79 -115c-49 -51 -100 -76 -152 -76c-59 0 -89 45 -89 134c0 69 18 137 55 205c53 98 132 147 237 147c49 0 87 -10 115 -30l31 30h40zM428 662c0 41 -20 62 -61 62
c-48 0 -79 -31 -79 -79c0 -41 20 -61 60 -61c53 0 80 26 80 78zM406 397c-17 22 -49 33 -96 33c-58 0 -106 -39 -143 -117c-31 -66 -47 -129 -47 -190c0 -55 14 -82 42 -82c45 0 96 49 155 148c50 85 80 155 89 208z" />
    <glyph glyph-name="atilde" unicode="&#xe3;" horiz-adv-x="533" 
d="M534 657c-41 -50 -82 -75 -123 -75c-17 0 -36 4 -59 11c-23 8 -40 12 -52 12c-33 0 -61 -16 -85 -49l-25 27c15 21 34 39 58 55c28 19 55 28 82 28c14 0 32 -4 55 -12s41 -12 52 -12c27 0 50 12 70 36zM514 477c-16 -28 -38 -96 -65 -203c-25 -100 -39 -164 -41 -191
c-2 -28 5 -42 21 -42c19 0 38 8 56 23l16 -29c-31 -25 -68 -38 -111 -38c-42 0 -63 17 -63 51c0 29 10 74 29 134c-19 -41 -46 -80 -79 -115c-49 -51 -100 -76 -152 -76c-59 0 -89 45 -89 134c0 69 18 137 55 205c53 98 132 147 237 147c49 0 87 -10 115 -30l31 30h40z
M406 397c-17 22 -49 33 -96 33c-58 0 -106 -39 -143 -117c-31 -66 -47 -129 -47 -190c0 -55 14 -82 42 -82c45 0 96 49 155 148c50 85 80 155 89 208z" />
    <glyph glyph-name="ccedilla" unicode="&#xe7;" horiz-adv-x="439" 
d="M461 420l-52 -55c-33 42 -73 63 -120 63c-42 0 -77 -19 -105 -57c-39 -54 -59 -122 -59 -203c0 -84 34 -126 102 -126c51 0 92 27 123 80l23 -30c-13 -27 -33 -50 -60 -68c-29 -19 -61 -30 -97 -33l-17 -34c49 -12 73 -36 73 -73c0 -29 -13 -52 -39 -70
c-25 -19 -53 -28 -83 -28c-43 0 -89 19 -105 40l44 44c31 -23 61 -34 88 -34c26 0 39 10 39 29c0 24 -25 41 -76 50l38 77c-93 9 -140 65 -140 166c0 102 33 184 99 247c50 48 108 72 175 72c66 0 116 -19 149 -57z" />
    <glyph glyph-name="eacute" unicode="&#xe9;" horiz-adv-x="430" 
d="M436 681l-190 -147l-25 26l169 168zM435 379c0 -48 -28 -83 -85 -104c-40 -15 -88 -23 -145 -23c-24 0 -49 1 -74 4c-8 -29 -12 -61 -12 -96c0 -79 36 -118 108 -118c51 0 92 27 123 80l23 -30c-31 -67 -91 -101 -181 -101c-105 0 -158 56 -158 168c0 45 9 91 27 137
c19 46 43 84 74 113c47 45 104 68 170 68c45 0 78 -10 101 -31c19 -17 29 -39 29 -67zM352 380c0 12 -5 23 -14 34c-11 13 -27 19 -47 19c-69 0 -119 -47 -149 -141c75 -6 128 -2 159 12c34 15 51 40 51 76z" />
    <glyph glyph-name="ecircumflex" unicode="&#xea;" horiz-adv-x="430" 
d="M463 562l-32 -30l-85 116h-21l-170 -116l-24 30l194 161h55zM435 379c0 -48 -28 -83 -85 -104c-40 -15 -88 -23 -145 -23c-24 0 -49 1 -74 4c-8 -29 -12 -61 -12 -96c0 -79 36 -118 108 -118c51 0 92 27 123 80l23 -30c-31 -67 -91 -101 -181 -101
c-105 0 -158 56 -158 168c0 45 9 91 27 137c19 46 43 84 74 113c47 45 104 68 170 68c45 0 78 -10 101 -31c19 -17 29 -39 29 -67zM352 380c0 12 -5 23 -14 34c-11 13 -27 19 -47 19c-69 0 -119 -47 -149 -141c75 -6 128 -2 159 12c34 15 51 40 51 76z" />
    <glyph glyph-name="edieresis" unicode="&#xeb;" horiz-adv-x="430" 
d="M455 628c-4 -31 -31 -50 -60 -50c-33 0 -47 17 -42 50c4 29 30 51 59 51c33 0 48 -17 43 -51zM260 628c-4 -31 -31 -50 -60 -50c-33 0 -47 17 -42 50c4 29 30 51 59 51c33 0 48 -17 43 -51zM435 379c0 -48 -28 -83 -85 -104c-40 -15 -88 -23 -145 -23c-24 0 -49 1 -74 4
c-8 -29 -12 -61 -12 -96c0 -79 36 -118 108 -118c51 0 92 27 123 80l23 -30c-31 -67 -91 -101 -181 -101c-105 0 -158 56 -158 168c0 45 9 91 27 137c19 46 43 84 74 113c47 45 104 68 170 68c45 0 78 -10 101 -31c19 -17 29 -39 29 -67zM352 380c0 12 -5 23 -14 34
c-11 13 -27 19 -47 19c-69 0 -119 -47 -149 -141c75 -6 128 -2 159 12c34 15 51 40 51 76z" />
    <glyph glyph-name="egrave" unicode="&#xe8;" horiz-adv-x="430" 
d="M397 560l-25 -26l-190 147l46 47zM435 379c0 -48 -28 -83 -85 -104c-40 -15 -88 -23 -145 -23c-24 0 -49 1 -74 4c-8 -29 -12 -61 -12 -96c0 -79 36 -118 108 -118c51 0 92 27 123 80l23 -30c-31 -67 -91 -101 -181 -101c-105 0 -158 56 -158 168c0 45 9 91 27 137
c19 46 43 84 74 113c47 45 104 68 170 68c45 0 78 -10 101 -31c19 -17 29 -39 29 -67zM352 380c0 12 -5 23 -14 34c-11 13 -27 19 -47 19c-69 0 -119 -47 -149 -141c75 -6 128 -2 159 12c34 15 51 40 51 76z" />
    <glyph glyph-name="iacute" unicode="&#xed;" horiz-adv-x="282" 
d="M324 681l-190 -147l-25 26l169 168zM240 37c-33 -27 -70 -40 -111 -40c-45 0 -68 16 -68 49c0 17 10 61 31 134c24 87 39 145 45 176c4 22 6 37 6 45c0 18 -7 27 -21 27c-26 0 -46 -11 -60 -33l-18 29c30 35 73 53 129 53c37 0 55 -18 55 -54c0 -23 -14 -87 -42 -192
c-27 -102 -41 -158 -41 -167c0 -15 7 -23 21 -23c20 0 39 8 57 24z" />
    <glyph glyph-name="icircumflex" unicode="&#xee;" horiz-adv-x="282" 
d="M333 562l-32 -30l-85 116h-21l-170 -116l-24 30l194 161h55zM240 37c-33 -27 -70 -40 -111 -40c-45 0 -68 16 -68 49c0 17 10 61 31 134c24 87 39 145 45 176c4 22 6 37 6 45c0 18 -7 27 -21 27c-26 0 -46 -11 -60 -33l-18 29c30 35 73 53 129 53c37 0 55 -18 55 -54
c0 -23 -14 -87 -42 -192c-27 -102 -41 -158 -41 -167c0 -15 7 -23 21 -23c20 0 39 8 57 24z" />
    <glyph glyph-name="idieresis" unicode="&#xef;" horiz-adv-x="282" 
d="M333 628c-4 -31 -31 -50 -60 -50c-33 0 -47 17 -42 50c4 29 30 51 59 51c33 0 48 -17 43 -51zM138 628c-4 -31 -31 -50 -60 -50c-33 0 -47 17 -42 50c4 29 30 51 59 51c33 0 48 -17 43 -51zM240 37c-33 -27 -70 -40 -111 -40c-45 0 -68 16 -68 49c0 17 10 61 31 134
c24 87 39 145 45 176c4 22 6 37 6 45c0 18 -7 27 -21 27c-26 0 -46 -11 -60 -33l-18 29c30 35 73 53 129 53c37 0 55 -18 55 -54c0 -23 -14 -87 -42 -192c-27 -102 -41 -158 -41 -167c0 -15 7 -23 21 -23c20 0 39 8 57 24z" />
    <glyph glyph-name="igrave" unicode="&#xec;" horiz-adv-x="282" 
d="M253 560l-25 -26l-190 147l46 47zM240 37c-33 -27 -70 -40 -111 -40c-45 0 -68 16 -68 49c0 17 10 61 31 134c24 87 39 145 45 176c4 22 6 37 6 45c0 18 -7 27 -21 27c-26 0 -46 -11 -60 -33l-18 29c30 35 73 53 129 53c37 0 55 -18 55 -54c0 -23 -14 -87 -42 -192
c-27 -102 -41 -158 -41 -167c0 -15 7 -23 21 -23c20 0 39 8 57 24z" />
    <glyph glyph-name="ntilde" unicode="&#xf1;" horiz-adv-x="570" 
d="M535 657c-41 -50 -82 -75 -123 -75c-17 0 -36 4 -59 11c-23 8 -40 12 -52 12c-33 0 -61 -16 -85 -49l-25 27c15 21 34 39 58 55c28 19 55 28 82 28c14 0 32 -4 55 -12s41 -12 52 -12c27 0 50 12 70 36zM531 37c-33 -27 -71 -40 -114 -40c-46 0 -69 16 -69 47
c0 15 11 61 32 136c25 84 40 143 45 178c3 15 4 26 4 33c0 23 -15 35 -44 35c-39 0 -81 -31 -126 -92c-67 -91 -111 -203 -130 -334h-77c0 41 14 107 41 198s41 157 41 200c0 21 -6 32 -19 32c-25 0 -45 -12 -60 -35l-18 29c31 35 72 53 123 53c35 0 53 -17 53 -50
c0 -27 -11 -79 -33 -157c61 138 143 207 247 207c58 0 87 -24 87 -71c0 -12 -2 -26 -5 -41c-7 -33 -23 -94 -47 -184c-17 -65 -26 -104 -26 -117c0 -15 7 -23 21 -23c20 0 39 8 57 24z" />
    <glyph glyph-name="oacute" unicode="&#xf3;" horiz-adv-x="532" 
d="M465 681l-190 -147l-25 26l169 168zM492 306c0 -77 -27 -148 -81 -213c-57 -68 -124 -102 -200 -102c-53 0 -94 16 -123 49c-27 31 -40 71 -40 121c0 71 22 138 66 199c56 78 129 117 219 117c106 0 159 -57 159 -171zM404 305c0 37 -3 63 -9 78c-13 31 -40 47 -82 47
c-55 0 -100 -35 -136 -106c-27 -54 -41 -110 -41 -167c0 -79 31 -119 92 -119c55 0 99 33 133 100c29 56 43 112 43 167z" />
    <glyph glyph-name="ocircumflex" unicode="&#xf4;" horiz-adv-x="532" 
d="M511 562l-32 -30l-85 116h-21l-170 -116l-24 30l194 161h55zM492 306c0 -77 -27 -148 -81 -213c-57 -68 -124 -102 -200 -102c-53 0 -94 16 -123 49c-27 31 -40 71 -40 121c0 71 22 138 66 199c56 78 129 117 219 117c106 0 159 -57 159 -171zM404 305c0 37 -3 63 -9 78
c-13 31 -40 47 -82 47c-55 0 -100 -35 -136 -106c-27 -54 -41 -110 -41 -167c0 -79 31 -119 92 -119c55 0 99 33 133 100c29 56 43 112 43 167z" />
    <glyph glyph-name="odieresis" unicode="&#xf6;" horiz-adv-x="532" 
d="M512 628c-4 -31 -31 -50 -60 -50c-33 0 -47 17 -42 50c4 29 30 51 59 51c33 0 48 -17 43 -51zM317 628c-4 -31 -31 -50 -60 -50c-33 0 -47 17 -42 50c4 29 30 51 59 51c33 0 48 -17 43 -51zM492 306c0 -77 -27 -148 -81 -213c-57 -68 -124 -102 -200 -102
c-53 0 -94 16 -123 49c-27 31 -40 71 -40 121c0 71 22 138 66 199c56 78 129 117 219 117c106 0 159 -57 159 -171zM404 305c0 37 -3 63 -9 78c-13 31 -40 47 -82 47c-55 0 -100 -35 -136 -106c-27 -54 -41 -110 -41 -167c0 -79 31 -119 92 -119c55 0 99 33 133 100
c29 56 43 112 43 167z" />
    <glyph glyph-name="ograve" unicode="&#xf2;" horiz-adv-x="532" 
d="M417 560l-25 -26l-190 147l46 47zM492 306c0 -77 -27 -148 -81 -213c-57 -68 -124 -102 -200 -102c-53 0 -94 16 -123 49c-27 31 -40 71 -40 121c0 71 22 138 66 199c56 78 129 117 219 117c106 0 159 -57 159 -171zM404 305c0 37 -3 63 -9 78c-13 31 -40 47 -82 47
c-55 0 -100 -35 -136 -106c-27 -54 -41 -110 -41 -167c0 -79 31 -119 92 -119c55 0 99 33 133 100c29 56 43 112 43 167z" />
    <glyph glyph-name="otilde" unicode="&#xf5;" horiz-adv-x="532" 
d="M506 657c-41 -50 -82 -75 -123 -75c-17 0 -36 4 -59 11c-23 8 -40 12 -52 12c-33 0 -61 -16 -85 -49l-25 27c15 21 34 39 58 55c28 19 55 28 82 28c14 0 32 -4 55 -12s41 -12 52 -12c27 0 50 12 70 36zM492 306c0 -77 -27 -148 -81 -213c-57 -68 -124 -102 -200 -102
c-53 0 -94 16 -123 49c-27 31 -40 71 -40 121c0 71 22 138 66 199c56 78 129 117 219 117c106 0 159 -57 159 -171zM404 305c0 37 -3 63 -9 78c-13 31 -40 47 -82 47c-55 0 -100 -35 -136 -106c-27 -54 -41 -110 -41 -167c0 -79 31 -119 92 -119c55 0 99 33 133 100
c29 56 43 112 43 167z" />
    <glyph glyph-name="scaron" unicode="&#x161;" horiz-adv-x="374" 
d="M439 678l-194 -161h-55l-83 161l32 30l85 -116h21l170 116zM367 444l-47 -53c-27 17 -59 26 -96 26c-54 0 -81 -21 -81 -64c0 -25 27 -51 81 -78c33 -16 55 -30 68 -42c21 -19 32 -42 32 -68c0 -41 -19 -78 -58 -112c-43 -37 -94 -55 -154 -55c-53 0 -91 11 -113 33
l42 60c30 -21 66 -31 107 -31c69 0 104 22 104 65c0 26 -16 49 -47 68c-29 16 -59 32 -89 48c-31 21 -47 49 -47 82c0 36 16 70 48 101c37 35 83 52 138 52c47 0 85 -11 112 -32z" />
    <glyph glyph-name="uacute" unicode="&#xfa;" horiz-adv-x="570" 
d="M484 681l-190 -147l-25 26l169 168zM540 35c-31 -25 -68 -38 -111 -38s-65 15 -65 45c0 26 11 78 33 156c-61 -138 -143 -207 -247 -207c-57 0 -85 25 -85 76c0 20 15 86 45 197c21 77 31 123 31 140c0 16 -6 24 -19 24c-26 0 -46 -11 -60 -33l-18 29c30 35 73 53 129 53
c35 0 53 -20 53 -59c0 -29 -13 -83 -39 -163s-39 -136 -39 -169c0 -29 15 -44 44 -44c39 0 81 31 126 92c67 91 111 203 130 334h77c0 -40 -13 -106 -40 -199c-27 -92 -40 -158 -40 -199c0 -19 8 -29 23 -29c19 0 38 8 56 23z" />
    <glyph glyph-name="ucircumflex" unicode="&#xfb;" horiz-adv-x="570" 
d="M510 562l-32 -30l-85 116h-21l-170 -116l-24 30l194 161h55zM540 35c-31 -25 -68 -38 -111 -38s-65 15 -65 45c0 26 11 78 33 156c-61 -138 -143 -207 -247 -207c-57 0 -85 25 -85 76c0 20 15 86 45 197c21 77 31 123 31 140c0 16 -6 24 -19 24c-26 0 -46 -11 -60 -33
l-18 29c30 35 73 53 129 53c35 0 53 -20 53 -59c0 -29 -13 -83 -39 -163s-39 -136 -39 -169c0 -29 15 -44 44 -44c39 0 81 31 126 92c67 91 111 203 130 334h77c0 -40 -13 -106 -40 -199c-27 -92 -40 -158 -40 -199c0 -19 8 -29 23 -29c19 0 38 8 56 23z" />
    <glyph glyph-name="udieresis" unicode="&#xfc;" horiz-adv-x="570" 
d="M503 628c-4 -31 -31 -50 -60 -50c-33 0 -47 17 -42 50c4 29 30 51 59 51c33 0 48 -17 43 -51zM308 628c-4 -31 -31 -50 -60 -50c-33 0 -47 17 -42 50c4 29 30 51 59 51c33 0 48 -17 43 -51zM540 35c-31 -25 -68 -38 -111 -38s-65 15 -65 45c0 26 11 78 33 156
c-61 -138 -143 -207 -247 -207c-57 0 -85 25 -85 76c0 20 15 86 45 197c21 77 31 123 31 140c0 16 -6 24 -19 24c-26 0 -46 -11 -60 -33l-18 29c30 35 73 53 129 53c35 0 53 -20 53 -59c0 -29 -13 -83 -39 -163s-39 -136 -39 -169c0 -29 15 -44 44 -44c39 0 81 31 126 92
c67 91 111 203 130 334h77c0 -40 -13 -106 -40 -199c-27 -92 -40 -158 -40 -199c0 -19 8 -29 23 -29c19 0 38 8 56 23z" />
    <glyph glyph-name="ugrave" unicode="&#xf9;" horiz-adv-x="570" 
d="M406 560l-25 -26l-190 147l46 47zM540 35c-31 -25 -68 -38 -111 -38s-65 15 -65 45c0 26 11 78 33 156c-61 -138 -143 -207 -247 -207c-57 0 -85 25 -85 76c0 20 15 86 45 197c21 77 31 123 31 140c0 16 -6 24 -19 24c-26 0 -46 -11 -60 -33l-18 29c30 35 73 53 129 53
c35 0 53 -20 53 -59c0 -29 -13 -83 -39 -163s-39 -136 -39 -169c0 -29 15 -44 44 -44c39 0 81 31 126 92c67 91 111 203 130 334h77c0 -40 -13 -106 -40 -199c-27 -92 -40 -158 -40 -199c0 -19 8 -29 23 -29c19 0 38 8 56 23z" />
    <glyph glyph-name="yacute" unicode="&#xfd;" horiz-adv-x="551" 
d="M445 681l-190 -147l-25 26l169 168zM515 468c-3 -19 -21 -106 -56 -260c-24 -105 -44 -178 -59 -217c-22 -57 -55 -108 -99 -152c-49 -49 -107 -73 -174 -73c-48 0 -84 12 -108 37l39 57c33 -21 69 -32 110 -32c59 0 102 30 129 91c28 64 54 148 77 253
c-17 -39 -40 -73 -68 -103c-49 -52 -104 -78 -165 -78c-58 0 -87 24 -87 71c0 12 2 26 5 41c7 33 23 94 47 184c17 65 26 104 26 117c0 15 -7 23 -21 23c-20 0 -39 -8 -57 -24l-17 28c33 27 71 40 114 40c46 0 69 -16 69 -47c0 -15 -11 -61 -32 -136
c-25 -84 -40 -143 -45 -178c-3 -15 -4 -26 -4 -33c0 -23 15 -35 44 -35c39 0 81 31 126 92c65 89 108 200 128 334h78z" />
    <glyph glyph-name="ydieresis" unicode="&#xff;" horiz-adv-x="551" 
d="M503 628c-4 -31 -31 -50 -60 -50c-33 0 -47 17 -42 50c4 29 30 51 59 51c33 0 48 -17 43 -51zM308 628c-4 -31 -31 -50 -60 -50c-33 0 -47 17 -42 50c4 29 30 51 59 51c33 0 48 -17 43 -51zM515 468c-3 -19 -21 -106 -56 -260c-24 -105 -44 -178 -59 -217
c-22 -57 -55 -108 -99 -152c-49 -49 -107 -73 -174 -73c-48 0 -84 12 -108 37l39 57c33 -21 69 -32 110 -32c59 0 102 30 129 91c28 64 54 148 77 253c-17 -39 -40 -73 -68 -103c-49 -52 -104 -78 -165 -78c-58 0 -87 24 -87 71c0 12 2 26 5 41c7 33 23 94 47 184
c17 65 26 104 26 117c0 15 -7 23 -21 23c-20 0 -39 -8 -57 -24l-17 28c33 27 71 40 114 40c46 0 69 -16 69 -47c0 -15 -11 -61 -32 -136c-25 -84 -40 -143 -45 -178c-3 -15 -4 -26 -4 -33c0 -23 15 -35 44 -35c39 0 81 31 126 92c65 89 108 200 128 334h78z" />
    <glyph glyph-name="zcaron" unicode="&#x17e;" horiz-adv-x="450" 
d="M490 678l-194 -161h-55l-83 161l32 30l85 -116h21l170 116zM456 458c-29 -54 -90 -125 -183 -213c-42 -39 -100 -94 -175 -166c32 -1 70 -4 115 -10c45 -5 80 -8 105 -8c31 0 53 5 66 16c8 6 16 20 24 41l29 -17c-23 -73 -75 -110 -154 -110c-33 0 -72 5 -119 14
c-46 10 -81 15 -106 15c-15 0 -28 -3 -38 -10c-6 -5 -12 -11 -18 -16l-25 26c7 15 36 46 87 93c49 45 98 89 147 134c87 81 136 132 147 151c-19 -1 -35 -2 -50 -2c-14 0 -33 1 -57 2c-23 1 -42 2 -56 2c-35 0 -60 -3 -73 -10c-19 -11 -32 -33 -39 -68l-32 17
c9 33 18 57 28 73c24 37 59 56 105 56c21 0 54 -2 97 -6c36 -3 62 -5 78 -5c19 0 31 0 36 1c12 2 22 8 29 18z" />
    <glyph glyph-name="NULL" unicode="&#xe001;" horiz-adv-x="0" 
 />
    <glyph glyph-name="CR" unicode="&#xe000;" horiz-adv-x="200" 
 />
    <glyph glyph-name="mu1" unicode="&#xe006;" horiz-adv-x="584" 
 />
    <glyph glyph-name="overscore" unicode="&#xe008;" horiz-adv-x="518" 
d="M404 672l-9 -58h-271l9 58h271z" />
    <glyph glyph-name="increment" unicode="&#xe004;" horiz-adv-x="612" 
d="M608 0h-602l320 688zM484 49l-194 468l-218 -468h412z" />
    <glyph glyph-name="Omega" unicode="&#x2126;" horiz-adv-x="768" 
d="M736 0h-295l16 152c29 13 48 22 56 29c49 36 86 114 86 221c0 89 -23 156 -69 202c-35 35 -83 52 -145 52s-110 -17 -145 -52c-46 -46 -69 -113 -69 -202c0 -107 37 -185 86 -221c8 -7 27 -16 56 -29l16 -152h-295v162h15c12 -49 25 -61 66 -61h158l-2 28
c-77 23 -133 59 -167 108c-33 49 -50 103 -50 161c0 49 11 94 34 135c24 43 62 80 114 111c50 29 111 44 183 44s133 -15 183 -44c25 -15 42 -26 52 -34c24 -20 45 -46 62 -77c23 -41 34 -86 34 -135c0 -58 -17 -112 -51 -161c-33 -49 -89 -85 -166 -108l-2 -28h158
c41 0 54 12 66 61h15v-162z" />
    <glyph glyph-name="pi" unicode="&#x3c0;" horiz-adv-x="549" 
d="M530 151c-1 -41 -10 -76 -27 -105c-25 -45 -60 -62 -93 -62c-14 0 -26 4 -36 11c-21 15 -38 40 -49 74c-13 38 -15 95 -7 171l17 161h-113c-13 -153 -29 -270 -46 -351c-10 -46 -32 -69 -65 -69c-24 0 -47 19 -52 39c-1 5 -2 10 -2 15c0 12 8 29 25 51c9 12 19 24 29 35
c12 17 19 34 21 51l29 229h-47c-29 0 -51 -11 -66 -32l-21 -31h-17c5 13 9 25 13 38c9 21 19 41 32 59c25 35 56 52 94 52h373v-86h-126c-8 -78 -12 -156 -12 -235c0 -33 8 -58 25 -73c12 -11 25 -17 40 -17c23 0 48 18 55 46c2 9 4 19 5 29h21z" />
    <glyph glyph-name="partialdiff" unicode="&#x2202;" horiz-adv-x="494" 
d="M462 393c0 -31 -4 -69 -11 -114c-10 -61 -24 -111 -41 -148c-16 -34 -30 -59 -41 -74c-16 -22 -37 -40 -63 -54c-29 -16 -59 -24 -91 -24c-39 0 -73 11 -104 32c-51 35 -79 83 -84 145c-5 65 13 124 55 175c40 49 87 73 142 71c31 -1 57 -7 80 -19c14 -7 37 -24 70 -49
c6 33 10 72 11 116c1 52 -9 105 -32 159c-8 19 -20 37 -37 53c-23 22 -48 34 -75 36c-12 1 -22 1 -31 1c-19 0 -36 -3 -51 -8c-19 -8 -37 -16 -55 -24l-39 50c44 19 88 29 131 29c93 0 165 -47 218 -140c32 -57 48 -128 48 -213zM366 299c-23 25 -36 38 -39 41
c-20 16 -43 24 -69 23c-38 -1 -70 -19 -96 -54c-33 -45 -50 -99 -50 -161c0 -63 15 -105 46 -125c15 -9 29 -14 44 -14c12 0 25 3 39 9c64 28 106 122 125 281z" />
    <glyph glyph-name="product" unicode="&#x220f;" horiz-adv-x="823" 
d="M803 -101h-306v23c33 0 56 5 70 14c17 12 26 34 26 67v693h-358v-693c0 -33 9 -55 26 -67c14 -9 38 -14 71 -14v-23h-307v23c33 0 57 5 71 14c17 12 26 34 26 67v626c0 66 -32 99 -95 99v23h773v-23c-63 0 -94 -33 -94 -99v-626c0 -33 9 -55 26 -67c14 -9 38 -14 71 -14
v-23z" />
    <glyph glyph-name="summation" unicode="&#x2211;" horiz-adv-x="713" 
d="M695 116c-13 -55 -22 -92 -26 -112c-5 -26 -11 -63 -17 -112c-47 7 -73 11 -77 11h-503c-13 0 -45 -3 -58 -3l349 398l-347 454c79 -5 114 -7 104 -7h497l6 -159h-20c-13 43 -25 70 -36 81c-21 22 -60 33 -117 33h-263l273 -358l-294 -339h371c38 0 66 8 84 23
c16 14 33 44 51 90h23z" />
    <glyph glyph-name="middot" unicode="&#xe005;" horiz-adv-x="214" 
d="M168 253c0 -33 -25 -57 -61 -57c-21 0 -37 7 -48 20c-9 11 -13 23 -13 37c0 28 20 56 60 56c41 0 62 -19 62 -56z" />
    <glyph glyph-name="radical" unicode="&#x221a;" horiz-adv-x="549" 
d="M515 912l-150 -950l-243 502l-96 -47l-16 33l146 72l197 -403l127 798z" />
    <glyph glyph-name="infinity" unicode="&#x221e;" horiz-adv-x="713" 
d="M688 279c4 -39 -8 -75 -36 -108c-30 -35 -67 -50 -111 -46c-43 4 -84 20 -122 49c-21 19 -41 38 -62 57c-21 -19 -41 -38 -62 -57c-38 -29 -79 -45 -122 -49c-44 -4 -81 11 -111 46c-28 33 -40 69 -36 108c3 35 19 64 46 88c27 25 59 37 95 37c21 0 41 -4 61 -13
c33 -15 76 -46 129 -94c53 48 96 79 129 94c20 9 40 13 61 13c36 0 68 -12 95 -37c27 -24 43 -53 46 -88zM638 259c1 21 -7 41 -22 60c-17 22 -40 33 -68 33c-13 0 -26 -2 -39 -7c-26 -9 -66 -36 -119 -81c34 -33 56 -53 67 -61c17 -13 39 -22 65 -28c7 -2 15 -3 22 -3
c49 0 93 38 94 87zM324 264c-53 45 -93 72 -119 81c-13 5 -26 7 -39 7c-28 0 -51 -11 -68 -33c-15 -19 -23 -39 -22 -60c1 -49 45 -87 94 -87c7 0 15 1 22 3c26 6 48 15 65 28c11 8 33 28 67 61z" />
    <glyph glyph-name="integral" unicode="&#x222b;" horiz-adv-x="274" 
d="M282 835c-11 -13 -25 -19 -42 -19c-21 0 -40 24 -51 24s-17 -7 -18 -22c7 -65 13 -175 19 -330l-1 -216c-1 -118 -12 -216 -34 -293c-7 -26 -17 -46 -29 -61c-4 -5 -12 -10 -24 -15c-14 -7 -27 -10 -40 -10c-9 0 -17 2 -24 5c-15 7 -26 20 -33 39c-2 5 -3 11 -3 16
c0 17 9 30 27 39c6 3 12 5 17 5c11 0 25 -8 40 -25c5 -5 9 -8 14 -8c9 0 16 12 21 36c4 21 6 46 5 74c-4 134 -6 239 -6 314v144c0 79 1 131 2 156c3 60 11 111 24 154c9 30 24 52 45 65c9 6 20 9 32 9c33 0 68 -20 68 -56c0 -9 -3 -18 -9 -25z" />
    <glyph glyph-name="approxequal" unicode="&#x2248;" horiz-adv-x="549" 
d="M512 369c-41 -57 -87 -85 -140 -85c-17 0 -52 7 -107 21s-90 21 -107 21c-38 0 -70 -17 -96 -52l-24 27c41 57 87 85 140 85c17 0 52 -7 107 -21s90 -21 107 -21c38 0 70 17 96 52zM512 173c-41 -57 -87 -85 -140 -85c-17 0 -52 7 -107 21s-90 21 -107 21
c-38 0 -70 -17 -96 -52l-24 27c41 57 87 85 140 85c17 0 52 -7 107 -21s90 -21 107 -21c38 0 70 17 96 52z" />
    <glyph glyph-name="notequal" unicode="&#x2260;" horiz-adv-x="549" 
d="M512 107h-256l-47 -140h-50l47 140h-168v66h190l43 130h-233v66h255l47 139h50l-46 -139h168v-66h-191l-43 -130h234v-66z" />
    <glyph glyph-name="lessequal" unicode="&#x2264;" horiz-adv-x="549" 
d="M512 132l-474 204v66l474 204v-66l-397 -171l397 -171v-66zM512 -1h-474v66h474v-66z" />
    <glyph glyph-name="greaterequal" unicode="&#x2265;" horiz-adv-x="549" 
d="M512 336l-474 -204v66l397 171l-397 171v66l474 -204v-66zM512 -1h-474v66h474v-66z" />
    <glyph glyph-name="lozenge" unicode="&#x25ca;" horiz-adv-x="494" 
d="M466 377l-194 -377h-60l-194 377l194 368h60zM406 377l-164 314l-164 -314l164 -323z" />
    <glyph glyph-name="_246" unicode="&#xe002;" horiz-adv-x="200" 
 />
    <glyph glyph-name="apple" unicode="&#xe003;" horiz-adv-x="804" 
d="M672 272c0 -79 -22 -146 -67 -203c-41 -52 -86 -78 -136 -78c-39 0 -52 17 -60 17c-7 0 -23 -17 -68 -17c-41 0 -82 20 -124 60c-58 55 -87 131 -87 228c0 109 45 164 135 164c59 0 96 -26 104 -26c13 0 19 11 19 33c0 7 -1 19 -3 36c-1 17 -2 30 -2 38
c-1 70 17 119 54 146c12 9 32 17 60 24c31 8 52 15 61 20c19 11 28 26 28 46h3c7 -19 11 -44 11 -74c0 -21 -2 -41 -7 -60c-7 -31 -27 -55 -59 -73c-27 -11 -55 -23 -83 -35c-27 -12 -41 -27 -41 -45c0 -39 10 -59 29 -59c1 0 10 5 28 14c18 10 44 15 78 15
c53 0 89 -18 108 -55c13 -25 19 -63 19 -116zM582 709c-8 -19 -22 -37 -42 -53c-20 -13 -40 -27 -60 -40c-38 -26 -65 -61 -80 -104c15 29 33 52 52 67l60 39c44 32 67 62 70 91zM312 137c-17 35 -25 65 -25 89c0 14 4 30 11 49s11 35 11 46c0 27 -10 41 -30 41
c-35 0 -52 -21 -52 -62c0 -37 28 -91 85 -163z" />
    <glyph glyph-name="nbspace" unicode="&#xe007;" horiz-adv-x="200" 
 />
    </font>
</defs>
</svg>
