<?xml version="1.0" standalone="no"?>
<!DOCTYPE svg PUBLIC "-//W3C//DTD SVG 1.1//EN" "http://www.w3.org/Graphics/SVG/1.1/DTD/svg11.dtd" >
<svg xmlns="http://www.w3.org/2000/svg" xmlns:xlink="http://www.w3.org/1999/xlink" version="1.1">
<metadata>
Created by FontForge 20190801 at Tue Aug 23 00:40:23 2005
 By Jimmy Wärting
version b1.0/created on 14-1-1993/Copr. Dutch Type Library
</metadata>
<defs>
<font id="DocumentaDtlRegular" horiz-adv-x="597" >
  <font-face 
    font-family="Documenta Dtl Regular"
    font-weight="400"
    font-stretch="normal"
    units-per-em="1000"
    panose-1="0 0 4 0 0 0 0 0 0 0"
    ascent="800"
    descent="-200"
    x-height="458"
    cap-height="683"
    bbox="-43 -242 1130 928"
    underline-thickness="20"
    underline-position="-143"
    stemh="37"
    stemv="84"
    unicode-range="U+0020-FB02"
  />
<missing-glyph horiz-adv-x="500" 
d="M63 0v766h375v-766h-375zM125 63h250v641h-250v-641z" />
    <glyph glyph-name="fi" unicode="fi" horiz-adv-x="583" 
d="M111 398h-76v51h75v79c0 66 18 122 55 167c38 48 87 72 148 72c71 0 125 -17 163 -52l-48 -66c-25 17 -41 28 -48 31c-33 16 -66 24 -101 24c-37 0 -62 -21 -75 -63c-7 -23 -10 -56 -10 -101v-91h158c25 0 56 9 93 28h38v-375c0 -27 8 -45 24 -54c10 -7 27 -10 51 -10
v-38c-8 0 -25 0 -51 1c-25 1 -47 1 -66 1c-18 0 -40 0 -66 -1c-25 -1 -42 -1 -51 -1v38c25 0 42 3 53 10c15 9 22 27 22 54v296h-204v-296c0 -27 9 -45 26 -54c11 -7 30 -10 56 -10v-38c-8 0 -25 0 -52 1s-49 1 -68 1c-18 0 -41 0 -68 -1s-44 -1 -53 -1v38c25 0 42 3 53 10
c15 9 22 27 22 54v296z" />
    <glyph glyph-name="fl" unicode="fl" horiz-adv-x="593" 
d="M568 0c-5 0 -22 0 -49 1s-49 1 -68 1c-18 0 -40 0 -66 -1c-25 -1 -42 -1 -51 -1v38c25 0 42 3 53 10c15 9 22 27 22 54v296h-214v-296c0 -27 9 -45 26 -54c11 -7 30 -10 56 -10v-38c-8 0 -25 0 -52 1s-49 1 -68 1c-18 0 -41 0 -68 -1s-44 -1 -53 -1v38c25 0 42 3 53 10
c15 9 22 27 22 54v296h-76v51h75v75c0 71 23 131 69 179c41 43 87 64 136 64c32 0 50 -3 55 -10v-26c35 9 64 21 85 36h38v-665c0 -27 8 -45 24 -54c10 -7 27 -10 51 -10v-38zM409 449v226c-5 3 -18 8 -39 17v-18c-31 13 -60 20 -87 20c-39 0 -65 -16 -77 -48
c-7 -19 -11 -55 -11 -107v-90h214z" />
    <glyph glyph-name=".notdef" horiz-adv-x="500" 
d="M63 0v766h375v-766h-375zM125 63h250v641h-250v-641z" />
    <glyph glyph-name="space" unicode=" " horiz-adv-x="200" 
 />
    <glyph glyph-name="exclam" unicode="!" horiz-adv-x="294" 
d="M130 196c0 3 -5 47 -15 131c-10 85 -15 151 -15 200c0 73 2 116 5 130c5 24 19 36 43 36s38 -12 43 -36c2 -12 3 -55 3 -130c0 -50 -5 -117 -15 -201c-10 -83 -15 -127 -15 -130h-34zM148 -10c-41 0 -61 19 -61 56c0 32 27 57 60 57c15 0 29 -5 41 -14
c14 -11 21 -26 21 -43c0 -35 -25 -56 -61 -56z" />
    <glyph glyph-name="quotedbl" unicode="&#x22;" horiz-adv-x="377" 
d="M91 523c-19 103 -28 169 -28 199c0 35 11 44 47 44c39 0 47 -12 47 -44c0 -25 -10 -91 -29 -199h-37zM249 523c-19 103 -28 169 -28 199c0 35 11 44 47 44c39 0 47 -12 47 -44c0 -25 -10 -91 -29 -199h-37z" />
    <glyph glyph-name="numbersign" unicode="#" horiz-adv-x="751" 
d="M208 19l16 158h-170l6 48h169l23 214h-169l5 48h168l19 178h52l-19 -178h164l18 178h52l-19 -178h170l-5 -48h-170l-22 -214h169l-6 -48h-169l-15 -158h-52l16 158h-164l-15 -158h-52zM467 439h-164l-22 -214h163z" />
    <glyph glyph-name="dollar" unicode="$" 
d="M78 -6c1 47 2 80 2 99s-1 51 -2 98h38c0 -99 50 -149 150 -149v275c-27 13 -54 25 -81 38c-33 16 -58 34 -74 55c-21 27 -32 59 -32 98c0 62 24 109 72 140c35 23 73 34 115 34v84h55v-84c35 0 71 -9 109 -26l13 36h38c-1 -41 -2 -70 -2 -89s1 -48 2 -89h-38
c0 33 -4 57 -13 72c-17 31 -54 49 -109 54v-247c26 -11 52 -21 78 -32c36 -16 63 -34 82 -55c25 -29 38 -65 38 -110c0 -65 -24 -116 -73 -153c-38 -29 -80 -43 -125 -43v-94h-55v94c-50 0 -95 10 -136 30l-17 -36h-35zM266 640c-75 0 -112 -35 -112 -104
c0 -33 15 -62 46 -86c12 -10 34 -22 66 -37v227zM321 297v-255c32 0 59 9 82 28c26 22 39 51 39 88c0 39 -14 71 -41 95c-17 15 -43 30 -80 44z" />
    <glyph glyph-name="percent" unicode="%" horiz-adv-x="769" 
d="M204 395c-97 0 -164 69 -164 170c0 47 16 87 49 120c33 34 73 51 122 51c97 0 165 -66 165 -166c0 -49 -17 -90 -51 -124c-33 -34 -74 -51 -121 -51zM172 -100l-52 30l477 836l53 -33zM556 -70c-97 0 -164 69 -164 170c0 47 16 87 49 120c33 34 73 51 122 51
c97 0 165 -66 165 -166c0 -49 -17 -90 -51 -124c-33 -34 -74 -51 -121 -51zM210 695c-37 0 -64 -15 -82 -45c-14 -23 -21 -51 -21 -84c0 -80 40 -128 101 -128c34 0 60 13 78 40c15 23 22 51 22 85c0 76 -37 132 -98 132zM562 230c-37 0 -64 -15 -82 -45
c-14 -23 -21 -51 -21 -84c0 -80 40 -128 101 -128c34 0 60 13 78 40c15 23 22 51 22 85c0 76 -37 132 -98 132z" />
    <glyph glyph-name="ampersand" unicode="&#x26;" horiz-adv-x="891" 
d="M196 351c-79 61 -119 120 -119 177c0 48 16 88 49 120c37 35 87 53 152 53c58 0 105 -14 140 -41c33 -26 50 -60 50 -101c0 -40 -20 -78 -60 -113c-17 -15 -49 -37 -98 -66c25 -19 62 -45 111 -78c50 -33 83 -54 98 -62l35 108c4 11 6 21 6 30c0 28 -23 42 -68 42v38
c9 0 26 0 51 -1c26 -1 48 -1 66 -1c19 0 41 0 66 1c26 1 43 1 51 1v-38c-35 0 -61 -6 -78 -18c-17 -11 -31 -34 -44 -69l-43 -120c171 -109 278 -164 319 -164c4 0 7 1 10 2l8 -29c-38 -20 -71 -29 -99 -28c-28 0 -78 20 -151 61c-57 32 -97 57 -120 76
c-53 -95 -134 -142 -242 -142c-72 0 -128 17 -167 51c-36 31 -54 71 -54 121c0 78 44 141 131 190zM276 402c38 25 64 44 78 57c23 23 34 49 34 77c0 68 -47 115 -116 115s-113 -34 -113 -93c0 -46 39 -98 117 -156zM227 328c-25 -18 -43 -36 -54 -54
c-14 -23 -21 -52 -21 -87c0 -38 12 -70 36 -95c27 -30 66 -45 116 -45c88 0 149 36 183 108c-93 54 -180 112 -260 173z" />
    <glyph glyph-name="quoteright" unicode="&#x2019;" horiz-adv-x="256" 
d="M61 517l-20 32c67 13 101 48 103 105c-7 -1 -13 -2 -20 -1c-41 3 -61 22 -61 57c0 33 25 57 60 57c54 0 81 -34 81 -101c0 -38 -15 -72 -46 -102c-30 -29 -62 -45 -97 -47z" />
    <glyph glyph-name="parenleft" unicode="(" horiz-adv-x="350" 
d="M316 -239c-21 10 -45 27 -70 50c-42 39 -76 86 -102 141c-42 89 -63 194 -63 314c0 121 21 226 63 315c26 55 60 102 102 141c25 23 49 40 70 50l23 -25c-33 -30 -50 -46 -52 -49c-27 -31 -52 -74 -73 -128c-34 -85 -51 -186 -51 -303s17 -219 51 -304
c21 -54 46 -97 73 -128c2 -3 19 -19 52 -49z" />
    <glyph glyph-name="parenright" unicode=")" horiz-adv-x="350" 
d="M32 -239l-23 25c33 30 50 46 52 49c27 31 52 74 73 128c34 85 51 186 51 303s-17 219 -51 304c-21 54 -46 97 -73 128c-2 3 -19 19 -52 49l23 25c21 -10 45 -27 70 -50c42 -39 76 -86 102 -141c42 -89 63 -194 63 -314c0 -121 -21 -226 -63 -315
c-26 -55 -60 -102 -102 -141c-25 -23 -49 -40 -70 -50z" />
    <glyph glyph-name="asterisk" unicode="*" horiz-adv-x="520" 
d="M218 375l25 154l-111 -111l-25 25l111 111l-154 -25v82l152 -25l-110 111l26 26l111 -111l-26 154h82l-24 -154l111 111l26 -26l-111 -110l155 25v-83l-153 25l110 -110l-27 -27l-111 110l26 -152h-83z" />
    <glyph glyph-name="plus" unicode="+" horiz-adv-x="549" 
d="M240 0v204h-202v66h202v204h70v-204h202v-66h-202v-204h-70z" />
    <glyph glyph-name="comma" unicode="," horiz-adv-x="257" 
d="M61 -156l-20 32c67 13 101 48 103 105c-7 -1 -13 -2 -20 -1c-41 3 -61 22 -61 57c0 33 25 57 60 57c54 0 81 -34 81 -101c0 -38 -15 -72 -46 -101c-30 -30 -62 -46 -97 -48z" />
    <glyph glyph-name="hyphen" unicode="-" horiz-adv-x="405" 
d="M66 216v74h273v-74h-273z" />
    <glyph glyph-name="period" unicode="." horiz-adv-x="228" 
d="M111 -10c-21 0 -36 7 -46 20c-9 11 -13 23 -13 38c0 29 21 56 61 56s60 -19 60 -57c0 -32 -23 -57 -62 -57z" />
    <glyph glyph-name="slash" unicode="/" horiz-adv-x="577" 
d="M53 -178l-53 31l524 909l53 -31z" />
    <glyph glyph-name="zero" unicode="0" 
d="M562 358c0 -101 -23 -186 -69 -255c-50 -75 -116 -113 -198 -113s-146 33 -193 98c-44 63 -66 145 -66 248c0 101 23 185 70 254c51 75 119 112 204 112c89 0 155 -36 198 -107c36 -59 54 -138 54 -237zM462 352c0 202 -53 303 -158 303c-63 0 -108 -35 -137 -105
c-21 -53 -32 -123 -31 -210c1 -202 56 -303 164 -303s162 105 162 315z" />
    <glyph glyph-name="one" unicode="1" 
d="M429 0c-8 0 -28 0 -60 1c-31 1 -56 1 -75 1c-18 0 -44 0 -79 -1s-56 -1 -65 -1v38c67 0 100 18 100 55v508c-11 -3 -34 -4 -69 -4c-21 0 -40 1 -59 2v38c20 0 48 6 85 19c34 11 62 23 84 36h47v-599c0 -25 11 -41 34 -49c12 -4 31 -6 57 -6v-38z" />
    <glyph glyph-name="two" unicode="2" 
d="M513 -1h-457v43c31 31 90 93 175 186c56 65 89 104 98 117c30 45 45 89 45 133c0 95 -46 143 -138 143c-68 0 -117 -35 -117 -88c0 -29 6 -50 18 -63l-29 -22c-27 15 -41 46 -41 92c0 42 16 78 47 109c37 35 88 53 152 53c65 0 117 -19 156 -56c35 -35 53 -79 53 -134
c0 -71 -57 -166 -171 -285l-141 -147h350v-81z" />
    <glyph glyph-name="three" unicode="3" 
d="M497 196c0 -62 -22 -112 -67 -150c-44 -37 -101 -56 -171 -56c-91 0 -158 40 -200 120l31 42c15 -28 35 -51 60 -70c31 -23 66 -35 105 -35c41 0 75 10 100 31c30 23 45 58 45 104c0 50 -24 89 -71 116c-39 22 -89 35 -151 40v35c49 11 90 30 123 55c39 30 59 65 59 105
c0 33 -13 59 -40 77c-24 16 -53 24 -88 24c-57 0 -99 -28 -99 -73c0 -28 6 -47 17 -56l-29 -22c-25 14 -38 41 -38 80c0 40 17 73 50 99c33 27 76 40 127 40c55 0 100 -12 134 -36c37 -26 55 -62 55 -108c0 -43 -19 -83 -58 -118c-23 -21 -49 -37 -78 -49
c123 -31 184 -96 184 -195z" />
    <glyph glyph-name="four" unicode="4" 
d="M570 225h-164v-132c0 -25 10 -41 30 -49c10 -4 27 -6 52 -6v-38c-8 0 -26 0 -55 1s-52 1 -71 1c-18 0 -42 0 -73 -1c-30 -1 -49 -1 -58 -1v38c25 0 44 2 55 6c21 8 32 24 32 49v132h-318v46l367 421h39v-393h164v-74zM318 299v258l-229 -258h229z" />
    <glyph glyph-name="five" unicode="5" 
d="M524 230c0 -80 -27 -141 -82 -184c-46 -37 -103 -55 -170 -55c-99 0 -165 39 -198 118l31 42c11 -28 30 -51 56 -70c31 -23 69 -34 114 -34c43 0 78 12 106 37c31 27 47 66 47 117c0 69 -34 118 -103 149c-45 20 -118 35 -218 44v288h402v-80h-351v-130
c89 -7 158 -19 207 -38c106 -41 159 -109 159 -204z" />
    <glyph glyph-name="six" unicode="6" 
d="M543 227c0 -71 -22 -129 -66 -172s-101 -65 -172 -65c-76 0 -136 30 -180 89c-42 57 -63 134 -63 231c0 137 42 243 126 316c58 51 128 76 209 76c44 0 80 -7 108 -20v-53c-28 13 -63 19 -106 19c-66 0 -121 -27 -164 -81c-22 -27 -40 -61 -53 -100
c-11 -33 -16 -62 -16 -85c9 13 25 25 48 37c31 16 66 24 103 24c54 0 99 -12 136 -35c60 -38 90 -98 90 -181zM446 207c0 59 -16 104 -47 135c-28 27 -65 41 -112 41c-64 0 -106 -18 -127 -55c-1 -23 -2 -38 -2 -46c0 -67 12 -123 37 -167c29 -51 69 -76 120 -76
c83 0 131 59 131 168z" />
    <glyph glyph-name="seven" unicode="7" 
d="M532 651l-383 -673l-52 26l336 594h-367v84h466v-31z" />
    <glyph glyph-name="eight" unicode="8" 
d="M542 185c0 -54 -23 -100 -69 -138s-106 -57 -179 -57c-148 0 -238 64 -238 172c0 75 53 137 158 184c-41 20 -69 37 -85 50c-41 34 -61 75 -61 124c0 56 24 101 71 135c44 31 98 47 161 47c135 0 220 -59 220 -155c0 -74 -51 -131 -154 -172c57 -23 97 -46 122 -67
c36 -32 54 -73 54 -123zM436 533c0 76 -55 122 -148 122c-81 0 -134 -38 -134 -110c0 -39 24 -74 73 -106c32 -21 64 -35 95 -44c76 31 114 77 114 138zM454 163c0 41 -23 76 -69 105c-19 12 -61 31 -127 58c-81 -33 -122 -84 -122 -153c0 -39 15 -72 46 -98
c31 -25 70 -38 117 -38c91 0 155 45 155 126z" />
    <glyph glyph-name="nine" unicode="9" 
d="M528 392c0 -136 -44 -259 -123 -328c-56 -49 -126 -74 -209 -74c-54 0 -97 13 -130 38v54c36 -27 78 -40 127 -40c70 0 125 24 164 73c21 27 38 63 51 109c10 37 15 68 15 94c-8 -13 -23 -25 -46 -37c-31 -16 -66 -24 -103 -24c-63 0 -116 19 -159 56
c-45 39 -67 90 -67 152c0 68 22 124 66 169s101 68 170 68c72 0 129 -22 170 -66c49 -53 74 -134 74 -244zM431 428c0 65 -13 118 -38 159c-28 44 -68 66 -119 66c-83 0 -131 -59 -131 -168c0 -57 16 -100 48 -129c28 -26 66 -39 113 -39c63 0 104 18 125 55c1 23 2 41 2 56
z" />
    <glyph glyph-name="colon" unicode=":" horiz-adv-x="284" 
d="M139 -9c-21 0 -36 7 -46 20c-9 11 -13 23 -13 38c0 29 21 56 61 56s60 -19 60 -57c0 -32 -23 -57 -62 -57zM139 354c-21 0 -36 7 -46 20c-9 11 -13 23 -13 38c0 29 21 56 61 56s60 -19 60 -57c0 -32 -23 -57 -62 -57z" />
    <glyph glyph-name="semicolon" unicode=";" horiz-adv-x="294" 
d="M80 -147l-20 32c67 13 101 48 103 105c-7 -1 -13 -2 -20 -1c-41 3 -61 22 -61 57c0 33 25 57 60 57c54 0 81 -34 81 -101c0 -38 -15 -72 -46 -101c-30 -30 -62 -46 -97 -48zM138 354c-21 0 -36 7 -46 20c-9 11 -13 23 -13 38c0 29 21 56 61 56s60 -19 60 -57
c0 -32 -23 -57 -62 -57z" />
    <glyph glyph-name="less" unicode="&#x3c;" horiz-adv-x="549" 
d="M512 474v-66l-397 -171l397 -171v-66l-474 204v66z" />
    <glyph glyph-name="equal" unicode="=" horiz-adv-x="549" 
d="M512 303h-474v66h474v-66zM512 107h-474v66h474v-66z" />
    <glyph glyph-name="greater" unicode="&#x3e;" horiz-adv-x="549" 
d="M38 0v66l397 171l-397 171v66l474 -204v-66z" />
    <glyph glyph-name="question" unicode="?" horiz-adv-x="453" 
d="M410 481c0 -109 -48 -177 -143 -203c-29 -7 -58 -15 -87 -23c-28 -7 -42 -17 -42 -30c0 -21 11 -36 32 -45l-30 -28c-31 15 -60 65 -60 114c0 26 17 46 51 59c3 1 39 11 109 29c37 9 64 21 80 34c22 19 33 46 33 82c0 41 -20 76 -61 103c-37 25 -81 38 -131 38
c-55 0 -97 -8 -128 -23l-5 75c35 21 81 31 136 31c72 0 131 -20 177 -59s69 -90 69 -154zM213 46c0 -35 -25 -56 -61 -56c-41 0 -61 19 -61 56c0 32 27 57 60 57c15 0 29 -5 41 -14c14 -11 21 -26 21 -43z" />
    <glyph glyph-name="at" unicode="@" horiz-adv-x="841" 
d="M806 418c0 -90 -27 -160 -81 -209c-46 -42 -101 -63 -166 -63c-51 0 -77 21 -77 64c0 17 4 40 11 71c-16 -34 -40 -64 -71 -90c-35 -29 -67 -43 -98 -43c-61 0 -92 33 -92 100c0 61 17 120 51 176c42 69 97 104 166 104c42 0 79 -10 111 -29c9 6 18 15 27 28h38
c-35 -94 -61 -188 -78 -281c-1 -7 -2 -14 -2 -21c0 -30 15 -45 44 -45c41 0 75 16 101 49c31 38 46 94 46 169c0 91 -27 158 -81 203c-50 41 -121 62 -212 62c-95 0 -173 -36 -234 -109c-57 -67 -85 -147 -85 -240c0 -98 28 -173 83 -224c45 -42 101 -63 168 -63
c73 0 132 12 175 37l14 -26c-56 -37 -127 -55 -213 -55c-83 0 -153 26 -210 79c-63 59 -95 139 -95 241c0 122 40 219 120 292c77 71 175 106 296 106c98 0 178 -22 240 -67c69 -51 104 -123 104 -216zM529 466c-17 16 -40 24 -69 24c-55 0 -97 -35 -126 -106
c-18 -45 -27 -84 -27 -119c0 -23 1 -37 2 -42c5 -22 17 -33 36 -33c37 0 74 31 111 94c30 51 54 112 73 182z" />
    <glyph glyph-name="A" unicode="A" horiz-adv-x="751" 
d="M15 0v38c29 -1 51 8 66 25c8 10 19 33 34 70l220 550h77l219 -543c18 -44 32 -71 42 -82c13 -13 34 -20 63 -20v-38c-8 0 -26 0 -54 1s-51 1 -70 1c-18 0 -41 0 -69 -1s-46 -1 -55 -1v38c41 2 62 13 62 34c0 13 -6 35 -18 65l-57 144h-241l-55 -147
c-7 -17 -10 -32 -10 -45c0 -34 24 -51 71 -51v-38c-8 0 -24 0 -49 1c-24 1 -45 1 -64 1c-18 0 -39 0 -63 -1s-40 -1 -49 -1zM252 328h204l-102 260z" />
    <glyph glyph-name="B" unicode="B" horiz-adv-x="638" 
d="M44 0v38c23 0 40 2 49 6c17 8 26 24 26 49v497c0 25 -9 42 -27 49c-11 4 -30 6 -58 6v38h59c31 -1 55 -1 73 -1c15 0 35 0 60 1h70c132 0 215 -62 215 -158c0 -45 -19 -85 -56 -118c-22 -20 -45 -35 -70 -44l54 -15c36 -13 65 -30 86 -51c30 -29 45 -64 45 -105
c0 -58 -22 -104 -66 -139c-45 -37 -107 -55 -185 -55c-80 0 -129 3 -153 3h-72c-29 -1 -46 -1 -50 -1zM207 631v-251c12 -2 37 -3 75 -3c91 0 136 43 136 130c0 79 -49 126 -140 126c-30 0 -54 -1 -71 -2zM207 328v-206c0 -32 12 -54 35 -65c17 -9 46 -13 85 -13
c87 0 142 47 142 138c0 47 -18 83 -54 110c-35 25 -82 37 -141 37h-44c-13 -1 -20 -1 -23 -1z" />
    <glyph glyph-name="C" unicode="C" horiz-adv-x="678" 
d="M632 16c-13 -1 -39 -5 -80 -12c-40 -7 -79 -11 -116 -11c-116 0 -208 30 -276 90c-70 61 -105 145 -105 252c0 106 31 190 94 253c67 66 159 99 277 99c37 0 75 -3 113 -8c41 -6 62 -9 65 -9c9 0 20 0 33 1c-1 -35 -2 -61 -2 -80s1 -44 2 -75h-38c3 77 -53 115 -168 115
c-185 0 -277 -92 -277 -276c0 -95 26 -169 79 -224s122 -82 207 -82c56 0 95 7 117 21c25 15 37 43 37 84h38c-1 -27 -2 -50 -2 -69s1 -42 2 -69z" />
    <glyph glyph-name="D" unicode="D" horiz-adv-x="800" 
d="M44 0v38c23 0 40 2 49 6c17 8 26 24 26 49v497c0 25 -10 41 -31 49c-11 4 -29 6 -54 6v38h59c31 -1 55 -1 73 -1c15 0 41 0 79 1s71 2 99 2c118 0 211 -23 280 -70c80 -55 120 -139 120 -252c0 -107 -31 -193 -92 -259c-67 -73 -163 -109 -286 -109c-23 0 -59 1 -106 3
s-79 3 -94 3h-68c-27 -1 -45 -1 -54 -1zM207 623v-502c0 -33 19 -55 58 -65c21 -5 56 -8 106 -8c85 0 150 25 197 74c50 53 75 130 75 233c0 97 -31 168 -92 215c-54 41 -129 61 -225 61c-43 0 -82 -3 -119 -8z" />
    <glyph glyph-name="E" unicode="E" horiz-adv-x="594" 
d="M551 0l-385 2c-18 0 -41 0 -68 -1s-45 -1 -54 -1v38c23 0 40 2 49 6c17 8 26 24 26 49v497c0 25 -9 42 -27 49c-11 4 -30 6 -58 6v38c9 0 28 0 59 -1s55 -1 73 -1c15 0 41 0 78 1c38 1 70 1 97 1c79 0 139 1 178 2c-1 -27 -2 -50 -2 -69s1 -42 2 -70h-36
c0 39 -10 63 -30 73c-17 8 -57 12 -122 12c-43 0 -84 -1 -124 -2v-251h101c55 0 89 3 102 9c16 8 24 29 24 62h38c0 -16 -2 -65 -2 -102c0 -36 2 -85 2 -102h-39c0 39 -8 64 -24 73c-13 9 -47 13 -101 13h-101v-210c0 -33 9 -54 28 -62c13 -5 48 -8 105 -8
c68 0 111 4 130 13c29 13 43 43 43 90h38c-1 -33 -2 -58 -2 -77s1 -44 2 -77z" />
    <glyph glyph-name="F" unicode="F" horiz-adv-x="527" 
d="M522 546h-36c0 39 -10 63 -30 73c-17 8 -57 12 -122 12c-45 0 -87 -1 -127 -2v-263h100c55 0 89 3 102 9c16 8 24 29 24 62h38c0 -16 -2 -65 -2 -102c0 -36 2 -85 2 -102h-39c0 39 -8 64 -24 73c-13 9 -47 13 -101 13h-100v-226c0 -25 10 -42 30 -49c10 -4 30 -6 59 -6
v-38c-8 0 -27 0 -57 1s-54 1 -73 1c-18 0 -41 0 -68 -1s-45 -1 -54 -1v38c23 0 40 2 49 6c17 8 26 24 26 49v497c0 25 -9 42 -27 49c-11 4 -30 6 -58 6v38c9 0 28 0 59 -1s55 -1 73 -1c15 0 41 0 80 1s71 1 98 1c79 0 139 1 178 2c-1 -31 -2 -54 -2 -69c0 -17 1 -41 2 -70z
" />
    <glyph glyph-name="G" unicode="G" horiz-adv-x="777" 
d="M728 253c-23 0 -40 -2 -49 -6c-17 -8 -26 -24 -26 -49v-188c-95 -13 -160 -20 -195 -20c-69 0 -125 6 -167 17c-50 14 -95 39 -136 76c-65 59 -98 144 -98 255c0 117 40 207 119 270c67 53 156 79 268 79c44 0 86 -3 126 -9s63 -9 70 -9s16 0 28 1c-1 -22 -2 -48 -2 -79
s1 -57 2 -79h-38c1 39 -11 67 -36 85c-29 22 -78 33 -147 33c-194 0 -291 -90 -291 -271c0 -98 25 -174 74 -229c53 -59 131 -88 232 -88c46 0 80 4 103 11v145c0 25 -10 42 -29 49c-11 4 -31 6 -60 6v38c9 0 28 0 58 -1s54 -1 72 -1c19 0 42 0 69 1s45 1 53 1v-38z" />
    <glyph glyph-name="H" unicode="H" horiz-adv-x="821" 
d="M44 0v38c23 0 40 2 49 6c17 8 26 24 26 49v497c0 25 -9 41 -26 49c-9 4 -26 6 -49 6v38c9 0 26 0 52 -1c27 -1 49 -1 67 -1c19 0 41 0 67 1c27 1 44 1 52 1v-38c-23 0 -40 -2 -49 -6c-17 -8 -26 -24 -26 -49v-216h408v216c0 25 -9 41 -26 49c-9 4 -26 6 -49 6v38
c9 0 26 0 53 -1s50 -1 68 -1c19 0 41 0 66 1c26 1 43 1 51 1v-38c-23 0 -40 -2 -49 -6c-17 -8 -26 -24 -26 -49v-497c0 -25 9 -41 26 -49c9 -4 26 -6 49 -6v-38c-8 0 -25 0 -52 1c-26 1 -48 1 -67 1c-18 0 -40 0 -67 -1c-26 -1 -43 -1 -52 -1v38c23 0 40 2 49 6
c17 8 26 24 26 49v235h-408v-235c0 -25 9 -41 26 -49c9 -4 26 -6 49 -6v-38c-8 0 -25 0 -52 1c-26 1 -48 1 -67 1c-18 0 -40 0 -67 -1c-26 -1 -43 -1 -52 -1z" />
    <glyph glyph-name="I" unicode="I" horiz-adv-x="331" 
d="M282 0c-8 0 -25 0 -52 1c-26 1 -48 1 -67 1c-18 0 -40 0 -67 -1c-26 -1 -43 -1 -52 -1v38c23 0 40 2 49 6c17 8 26 24 26 49v497c0 25 -9 41 -26 49c-9 4 -26 6 -49 6v38c9 0 26 0 52 -1c27 -1 49 -1 67 -1c19 0 41 0 67 1c27 1 44 1 52 1v-38c-23 0 -40 -2 -49 -6
c-17 -8 -26 -24 -26 -49v-497c0 -25 9 -41 26 -49c9 -4 26 -6 49 -6v-38z" />
    <glyph glyph-name="J" unicode="J" horiz-adv-x="321" 
d="M282 645c-23 0 -40 -2 -49 -6c-17 -8 -26 -24 -26 -49v-444c0 -91 -14 -160 -43 -209c-18 -30 -43 -57 -75 -82c-26 -20 -51 -34 -74 -42l-21 29c40 22 70 53 90 92c23 46 35 111 35 194v462c0 25 -10 42 -29 49c-11 4 -31 6 -60 6v38c9 0 28 0 58 -1s54 -1 72 -1
c19 0 42 0 69 1s45 1 53 1v-38z" />
    <glyph glyph-name="K" unicode="K" horiz-adv-x="688" 
d="M681 0c-8 0 -26 0 -53 1s-50 1 -69 1c-18 0 -41 0 -69 -1c-27 -1 -45 -1 -54 -1v38c34 0 51 6 51 18c0 7 -7 18 -20 31l-252 255l235 238c11 11 16 22 16 35c0 20 -19 30 -57 30v38c9 0 26 0 53 -1s50 -1 68 -1c19 0 41 0 68 1s45 1 53 1v-36c-21 0 -38 -3 -51 -9
c-22 -10 -50 -32 -84 -66l-202 -203l256 -253c35 -35 60 -58 75 -67c11 -7 23 -11 36 -11v-38zM282 0c-8 0 -25 0 -52 1c-26 1 -48 1 -67 1c-18 0 -40 0 -67 -1c-26 -1 -43 -1 -52 -1v38c23 0 40 2 49 6c17 8 26 24 26 49v497c0 25 -9 41 -26 49c-9 4 -26 6 -49 6v38
c9 0 26 0 52 -1c27 -1 49 -1 67 -1c19 0 41 0 67 1c27 1 44 1 52 1v-38c-23 0 -40 -2 -49 -6c-17 -8 -26 -24 -26 -49v-497c0 -25 9 -41 26 -49c9 -4 26 -6 49 -6v-38z" />
    <glyph glyph-name="L" unicode="L" horiz-adv-x="525" 
d="M502 0l-336 2c-18 0 -41 0 -68 -1s-45 -1 -54 -1v38c23 0 40 2 49 6c17 8 26 24 26 49v497c0 25 -9 41 -26 49c-9 4 -26 6 -49 6v38c9 0 26 0 52 -1c27 -1 49 -1 67 -1c19 0 41 0 67 1c27 1 44 1 52 1v-38c-23 0 -40 -2 -49 -6c-17 -8 -26 -24 -26 -49v-469
c0 -33 9 -54 28 -62c13 -5 48 -8 105 -8c49 0 82 7 99 21s25 41 25 82h38c-1 -33 -2 -58 -2 -77s1 -44 2 -77z" />
    <glyph glyph-name="M" unicode="M" horiz-adv-x="911" 
d="M866 645c-30 0 -49 -3 -58 -10c-15 -10 -22 -34 -22 -73v-469c0 -25 9 -41 26 -49c9 -4 26 -6 49 -6v-38c-8 0 -25 0 -52 1c-26 1 -48 1 -67 1c-18 0 -40 0 -67 -1c-26 -1 -43 -1 -52 -1v38c23 0 40 2 49 6c17 8 26 24 26 49v466l-225 -559h-62l-232 503v-399
c0 -44 27 -66 80 -66v-38c-40 1 -76 2 -107 2c-18 0 -38 0 -61 -1c-22 -1 -37 -1 -46 -1v38c49 0 74 22 74 66v458c0 35 -8 58 -23 70c-12 9 -33 13 -63 13v38c25 -1 53 -1 84 -1s59 0 84 1l262 -572l227 572c28 -1 57 -1 88 -1s60 0 88 1v-38z" />
    <glyph glyph-name="N" unicode="N" horiz-adv-x="799" 
d="M748 645c-49 0 -74 -23 -74 -69v-576h-51l-444 565v-458c0 -46 30 -69 90 -69v-38c-40 1 -79 2 -117 2c-18 0 -38 0 -61 -1c-22 -1 -37 -1 -46 -1v38c49 0 74 23 74 69v455c0 35 -7 59 -22 70c-11 9 -32 13 -64 13v38c29 -1 58 -1 89 -1s60 0 89 1l403 -527v420
c0 46 -30 69 -90 69v38c40 -1 79 -2 117 -2c19 0 39 0 61 1c23 1 38 1 46 1v-38z" />
    <glyph glyph-name="O" unicode="O" horiz-adv-x="851" 
d="M444 701c107 0 190 -35 251 -105c56 -65 84 -149 84 -254c0 -98 -31 -181 -92 -249c-66 -73 -153 -110 -260 -110c-105 0 -188 31 -250 94c-61 63 -92 148 -92 253c0 109 33 198 98 267c66 69 153 104 261 104zM439 650c-77 0 -138 -28 -183 -85
c-45 -56 -67 -129 -67 -220c0 -83 16 -151 48 -205c42 -71 109 -106 200 -106c71 0 127 24 170 73c46 53 69 127 69 223c0 93 -17 168 -52 223c-41 65 -102 97 -185 97z" />
    <glyph glyph-name="P" unicode="P" horiz-adv-x="547" 
d="M539 499c0 -63 -23 -116 -68 -157s-101 -61 -168 -61c-29 0 -56 3 -80 10v44c26 -8 53 -12 80 -12c91 0 142 63 142 156c0 103 -52 154 -156 154c-42 0 -69 -1 -82 -2v-538c0 -25 10 -42 30 -49c10 -4 30 -6 59 -6v-38c-8 0 -27 0 -57 1s-54 1 -73 1c-18 0 -41 0 -68 -1
s-45 -1 -54 -1v38c23 0 40 2 49 6c17 8 26 24 26 49v497c0 25 -9 42 -27 49c-11 4 -30 6 -58 6v38c9 0 28 0 59 -1s55 -1 73 -1c24 0 66 2 149 2c147 0 224 -71 224 -184z" />
    <glyph glyph-name="Q" unicode="Q" horiz-adv-x="851" 
d="M904 -128c-40 -27 -81 -40 -123 -40c-51 0 -117 22 -198 65c-99 52 -162 82 -190 89c-33 3 -65 10 -94 20c-69 24 -122 63 -158 117c-37 57 -56 126 -56 207c0 109 33 198 98 267c66 69 153 104 261 104c107 0 190 -35 251 -105c56 -65 84 -149 84 -254
c0 -89 -25 -165 -76 -230c-49 -61 -109 -101 -182 -118c39 -12 101 -35 187 -70c61 -24 101 -36 121 -36c24 0 43 6 58 18zM676 330c0 93 -17 168 -52 223c-41 65 -102 97 -185 97c-77 0 -138 -28 -183 -85c-45 -56 -67 -129 -67 -220c0 -83 16 -152 47 -205
c42 -71 109 -106 200 -106c71 0 128 24 171 73c46 53 69 127 69 223z" />
    <glyph glyph-name="R" unicode="R" horiz-adv-x="716" 
d="M709 1c-19 -4 -36 -6 -49 -6c-69 0 -132 32 -189 96c-38 42 -87 108 -146 197c-25 0 -45 0 -60 1c-14 1 -33 2 -58 4v-200c0 -25 9 -41 26 -49c9 -4 26 -6 49 -6v-38c-8 0 -25 0 -52 1c-26 1 -48 1 -67 1c-18 0 -40 0 -67 -1c-26 -1 -43 -1 -52 -1v38c23 0 40 2 49 6
c17 8 26 24 26 49v497c0 25 -9 42 -27 49c-11 4 -30 6 -58 6v38c9 0 28 0 59 -1s55 -1 73 -1c16 0 41 0 75 1c35 1 62 1 83 1c72 0 128 -18 168 -53c37 -33 56 -77 56 -130c0 -39 -13 -76 -40 -112c-26 -33 -57 -58 -94 -75c34 -47 71 -95 112 -143
c74 -87 130 -131 169 -131h14v-38zM451 488c0 88 -54 145 -149 145c-49 0 -80 -1 -95 -2v-292c11 -1 31 -3 59 -5c22 -1 39 -1 50 0c80 0 135 58 135 154z" />
    <glyph glyph-name="S" unicode="S" horiz-adv-x="545" 
d="M496 206c0 -63 -23 -114 -68 -153s-104 -58 -179 -58c-39 0 -75 5 -110 16s-56 17 -63 17h-21c1 34 2 60 2 79s-1 45 -2 79h38c0 -93 54 -140 163 -140c43 0 78 9 105 28c32 22 48 54 48 97s-18 76 -55 99c-8 5 -48 22 -119 49c-58 23 -99 44 -123 64
c-37 31 -55 73 -55 124c0 59 24 104 72 136c41 28 92 42 153 42c32 0 63 -4 94 -11s51 -11 60 -11h19c-1 -35 -2 -61 -2 -80s1 -44 2 -76h-38c0 85 -46 127 -137 127c-40 0 -72 -7 -95 -20c-31 -17 -46 -45 -46 -84c0 -38 17 -68 51 -90c15 -10 52 -27 113 -50
c65 -25 108 -46 131 -63c41 -31 62 -71 62 -121z" />
    <glyph glyph-name="T" unicode="T" horiz-adv-x="640" 
d="M321 681c125 0 230 1 314 4c-1 -35 -2 -61 -2 -80s1 -45 2 -80h-38c0 41 -9 68 -26 82s-49 21 -98 21c-55 0 -92 -1 -109 -2v-533c0 -25 10 -42 30 -49c10 -4 30 -6 59 -6v-38c-8 0 -28 0 -59 1s-55 1 -74 1c-18 0 -43 0 -74 -1s-50 -1 -59 -1v38c29 0 49 2 60 6
c19 7 29 24 29 49v533c-16 1 -52 2 -107 2c-49 0 -82 -7 -99 -21s-25 -41 -25 -82h-38c1 35 2 61 2 80s-1 45 -2 80c83 -3 188 -4 314 -4z" />
    <glyph glyph-name="U" unicode="U" horiz-adv-x="799" 
d="M758 645c-49 0 -74 -22 -74 -66v-347c0 -87 -29 -152 -87 -195c-51 -37 -119 -55 -205 -55c-83 0 -149 17 -197 50c-56 38 -84 96 -84 173v385c0 25 -9 41 -26 49c-9 4 -26 6 -49 6v38c9 0 26 0 52 -1c27 -1 49 -1 67 -1c19 0 41 0 67 1c27 1 44 1 52 1v-38
c-23 0 -40 -2 -49 -6c-17 -8 -26 -24 -26 -49v-350c0 -127 71 -191 214 -191c141 0 211 64 211 191v339c0 44 -27 66 -80 66v38c40 -1 76 -2 107 -2c19 0 39 0 61 1c23 1 38 1 46 1v-38z" />
    <glyph glyph-name="V" unicode="V" horiz-adv-x="710" 
d="M710 645c-29 1 -51 -8 -65 -25c-8 -9 -20 -33 -35 -70l-228 -550h-68l-211 543c-17 43 -30 71 -41 82c-13 13 -34 20 -64 20v38c9 0 27 0 55 -1c29 -1 52 -1 70 -1c19 0 42 0 70 1c29 1 47 1 55 1v-38c-41 -2 -61 -13 -61 -34c0 -13 6 -34 17 -65l166 -441l176 444
c7 17 10 32 10 45c0 34 -24 51 -71 51v38c9 0 25 0 49 -1c25 -1 46 -1 64 -1c19 0 40 0 64 1s40 1 48 1v-38z" />
    <glyph glyph-name="W" unicode="W" horiz-adv-x="1130" 
d="M561 445l-179 -445h-68l-211 543c-17 43 -30 71 -41 82c-13 13 -34 20 -64 20v38c9 0 27 0 55 -1c29 -1 52 -1 70 -1c19 0 42 0 70 1c29 1 47 1 55 1v-38c-41 -2 -61 -13 -61 -34c0 -13 6 -34 17 -65l166 -441l163 412l-10 26c-17 43 -30 71 -41 82c-13 13 -34 20 -64 20
v38c9 0 27 0 55 -1c29 -1 52 -1 70 -1c19 0 42 0 70 1c29 1 47 1 55 1v-38c-41 -2 -61 -13 -61 -34c0 -13 6 -34 17 -65l166 -441l176 444c7 17 10 32 10 45c0 34 -24 51 -71 51v38c9 0 25 0 49 -1c25 -1 46 -1 64 -1c19 0 40 0 64 1s40 1 48 1v-38c-29 1 -51 -8 -65 -25
c-8 -9 -20 -33 -35 -70l-228 -550h-68z" />
    <glyph glyph-name="X" unicode="X" horiz-adv-x="770" 
d="M739 0c-8 0 -25 0 -52 1c-26 1 -48 1 -67 1c-18 0 -41 0 -70 -1c-28 -1 -46 -1 -55 -1v38c31 0 47 8 47 25c0 9 -5 21 -15 34l-153 205l-145 -184c-13 -17 -20 -31 -20 -42c0 -25 21 -38 62 -38v-38c-8 0 -25 0 -51 1c-25 1 -47 1 -66 1c-18 0 -40 0 -66 -1
c-25 -1 -42 -1 -51 -1v36c29 0 54 8 75 24c13 9 29 26 48 51l183 234l-172 222c-25 31 -44 52 -58 62c-14 11 -32 16 -53 16v38c9 0 26 0 52 -1c27 -1 49 -1 67 -1c19 0 42 0 70 1c29 1 47 1 55 1v-38c-31 0 -47 -9 -47 -26c0 -10 5 -21 15 -34l127 -168l116 148
c13 17 20 31 20 42c0 25 -21 38 -62 38v38c9 0 26 0 51 -1c26 -1 48 -1 66 -1c19 0 41 0 66 1c26 1 43 1 51 1v-36c-29 0 -54 -8 -75 -24c-13 -9 -29 -26 -48 -51l-153 -198l193 -258c22 -29 38 -47 48 -56c18 -15 40 -22 67 -22v-38z" />
    <glyph glyph-name="Y" unicode="Y" horiz-adv-x="681" 
d="M690 647c-29 0 -54 -8 -75 -24c-13 -9 -29 -26 -48 -51l-183 -234v-245c0 -25 10 -42 30 -49c10 -4 30 -6 59 -6v-38c-8 0 -28 0 -59 1s-55 1 -74 1c-18 0 -43 0 -74 -1s-50 -1 -59 -1v38c29 0 49 2 60 6c19 7 29 24 29 49v216l-193 258c-22 29 -38 47 -48 56
c-18 15 -40 22 -67 22v38c9 0 26 0 52 -1c27 -1 49 -1 67 -1c19 0 42 0 70 1c29 1 47 1 55 1v-38c-31 0 -47 -8 -47 -25c0 -9 5 -21 15 -34l153 -205l145 184c13 17 20 31 20 42c0 25 -21 38 -62 38v38c9 0 26 0 51 -1c26 -1 48 -1 66 -1c19 0 41 0 66 1c26 1 43 1 51 1v-36
z" />
    <glyph glyph-name="Z" unicode="Z" horiz-adv-x="654" 
d="M610 0c-65 0 -159 0 -282 1c-122 1 -188 1 -199 1c-3 0 -32 -1 -85 -2v38l414 588h-244c-57 0 -92 -5 -105 -15c-13 -9 -20 -37 -20 -82h-38c1 33 2 58 2 77s-1 45 -2 78l446 -2c30 0 58 0 85 1v-38l-415 -588h277c54 0 89 6 104 19c16 13 24 40 24 82h38
c-1 -34 -2 -60 -2 -79s1 -45 2 -79z" />
    <glyph glyph-name="bracketleft" unicode="[" horiz-adv-x="304" 
d="M276 719h-97v-905h96v-48h-174v1000h175v-47z" />
    <glyph glyph-name="backslash" unicode="\" horiz-adv-x="577" 
d="M577 -147l-53 -31l-524 909l53 31z" />
    <glyph glyph-name="bracketright" unicode="]" horiz-adv-x="311" 
d="M201 -234h-175v48h97v905h-97v47h175v-1000z" />
    <glyph glyph-name="asciicircum" unicode="^" horiz-adv-x="500" 
d="M382 383l-132 306l-132 -306h-66l165 383h66l165 -383h-66z" />
    <glyph glyph-name="underscore" unicode="_" horiz-adv-x="500" 
d="M500 -100h-500v50h500v-50z" />
    <glyph glyph-name="quoteleft" unicode="&#x2018;" horiz-adv-x="247" 
d="M205 732c-67 -13 -101 -48 -103 -105c7 1 13 2 20 1c41 -3 61 -22 61 -57c0 -33 -25 -57 -60 -57c-54 0 -81 34 -81 101c0 38 16 72 47 103c29 29 61 44 96 46z" />
    <glyph glyph-name="a" unicode="a" horiz-adv-x="443" 
d="M437 40l-77 -48c-8 2 -16 6 -24 11c-19 12 -37 30 -53 55c-39 -44 -82 -66 -130 -66c-68 0 -123 45 -123 110c0 60 33 101 100 124c41 14 87 22 139 25v64c0 35 -11 61 -33 79c-18 14 -41 21 -68 21c-43 0 -79 -19 -110 -57l-23 20c9 25 27 47 56 66c33 22 69 33 110 33
c65 0 108 -22 131 -66c11 -21 16 -45 16 -74l-2 -207c0 -23 10 -42 29 -58c11 -9 32 -19 62 -32zM269 217c-57 -7 -96 -15 -118 -24c-31 -13 -46 -34 -46 -63c0 -24 9 -43 26 -58c15 -14 35 -21 58 -21c35 0 61 13 79 39z" />
    <glyph glyph-name="b" unicode="b" horiz-adv-x="547" 
d="M81 40v639c-30 7 -58 14 -85 22v38c40 2 85 11 134 27h35v-340c38 34 87 51 146 51s106 -22 142 -65c33 -41 50 -92 50 -154c0 -71 -22 -132 -65 -183c-49 -57 -116 -85 -201 -85c-61 0 -113 17 -156 50zM165 385v-311c27 -22 61 -33 104 -33c87 0 144 74 144 181
c0 57 -12 103 -35 138c-25 37 -62 56 -109 56c-44 0 -79 -10 -104 -31z" />
    <glyph glyph-name="c" unicode="c" horiz-adv-x="434" 
d="M423 78c-15 -23 -38 -43 -71 -60c-35 -18 -72 -27 -109 -27c-57 0 -105 21 -142 63c-41 45 -61 105 -61 180s26 135 77 182c45 41 97 61 155 61c63 0 113 -21 150 -64l-57 -56c-34 24 -52 37 -55 38c-26 15 -53 22 -80 22c-31 0 -56 -13 -75 -39
c-21 -29 -31 -69 -31 -120c0 -63 15 -112 46 -149c29 -34 65 -51 110 -51c47 0 87 17 120 51z" />
    <glyph glyph-name="d" unicode="d" horiz-adv-x="574" 
d="M550 20c-25 -1 -67 -11 -125 -30h-35v60c-41 -40 -92 -60 -153 -60c-55 0 -102 20 -139 61s-56 97 -56 166c0 79 24 142 71 189s107 71 180 71c35 0 64 -4 88 -11v213c-30 7 -58 14 -85 22v38c40 2 85 11 134 27h35v-690c16 -2 44 -8 85 -18v-38zM381 93v309
c-24 17 -55 25 -93 25c-47 0 -85 -15 -113 -46c-31 -33 -46 -82 -46 -145c0 -67 18 -115 54 -146c26 -23 59 -35 99 -35c37 0 70 13 99 38z" />
    <glyph glyph-name="e" unicode="e" horiz-adv-x="476" 
d="M440 248l-313 1c0 -70 18 -121 54 -153c26 -23 60 -35 101 -35c55 0 98 17 128 51l23 -31c-11 -18 -29 -35 -54 -52c-39 -25 -84 -38 -134 -38c-65 0 -116 24 -153 71c-34 43 -51 101 -51 172c0 72 20 130 59 175s90 68 153 68c58 0 104 -20 137 -60
c33 -39 50 -90 50 -151v-18zM352 290c0 35 -8 66 -25 92c-20 31 -48 46 -85 46c-34 0 -62 -15 -83 -44c-19 -26 -30 -57 -31 -94h224z" />
    <glyph glyph-name="f" unicode="f" horiz-adv-x="331" 
d="M36 0v38c25 0 42 3 53 10c15 9 22 27 22 54v296h-76v51h76v74c0 79 22 142 66 187c37 38 83 57 136 57c49 0 91 -14 125 -43l-49 -60c-34 23 -68 35 -101 35c-36 0 -61 -14 -75 -41c-12 -24 -18 -64 -18 -119v-90h128v-51h-128v-296c0 -27 9 -45 26 -54
c11 -7 30 -10 56 -10v-38c-8 0 -25 0 -52 1s-49 1 -68 1c-18 0 -41 0 -68 -1s-44 -1 -53 -1z" />
    <glyph glyph-name="g" unicode="g" horiz-adv-x="499" 
d="M118 3c-42 15 -63 38 -63 67s29 59 88 90c-63 31 -94 81 -94 148c0 49 19 89 58 121s86 48 141 48c32 0 68 -9 109 -28h140v-46h-86c7 -11 13 -23 19 -35c7 -17 11 -36 11 -59c0 -52 -21 -94 -62 -126c-37 -28 -81 -42 -132 -42c-34 0 -56 2 -67 7
c-30 -12 -45 -29 -45 -51c0 -15 16 -25 47 -32c15 -3 51 -7 110 -12c65 -5 107 -12 127 -19c39 -15 59 -42 59 -82c0 -48 -22 -91 -67 -130c-49 -43 -109 -64 -181 -64c-61 0 -110 12 -148 36c-38 23 -57 52 -57 86c0 48 31 89 93 123zM245 430c-71 0 -110 -55 -110 -119
c0 -75 45 -122 109 -122c39 0 68 13 88 38c17 21 26 49 26 82c0 76 -48 121 -113 121zM157 -9c-14 -6 -27 -16 -40 -30c-15 -16 -22 -32 -22 -48c0 -31 16 -55 48 -72c30 -17 68 -25 115 -25c92 0 153 44 153 101c0 24 -14 40 -42 49c-15 5 -49 10 -102 14
c-29 3 -65 6 -110 11z" />
    <glyph glyph-name="h" unicode="h" horiz-adv-x="602" 
d="M34 0v38c25 0 42 3 53 10c15 9 22 27 22 54v577c-30 7 -58 14 -85 22v38c40 2 85 11 134 27h35v-360c39 47 92 71 158 71c35 0 65 -9 92 -27c39 -27 58 -68 58 -124v-224c0 -27 8 -45 24 -54c10 -7 27 -10 51 -10v-38c-8 0 -25 0 -51 1c-25 1 -47 1 -66 1s-41 0 -68 -1
s-43 -1 -49 -1v38c25 0 42 3 53 10c15 9 22 27 22 54v206c0 63 -45 102 -113 102c-24 0 -47 -5 -70 -16c-20 -9 -34 -19 -41 -30v-262c0 -27 8 -45 24 -54c10 -7 27 -10 51 -10v-38c-8 0 -25 0 -51 1c-25 1 -47 1 -66 1c-18 0 -40 0 -66 -1c-25 -1 -42 -1 -51 -1z" />
    <glyph glyph-name="i" unicode="i" horiz-adv-x="293" 
d="M34 0v38c25 0 42 3 53 10c15 9 22 27 22 54v288c-30 7 -58 14 -85 22v38c40 2 85 11 134 27h35v-375c0 -27 8 -45 24 -54c10 -7 27 -10 51 -10v-38c-8 0 -25 0 -51 1c-25 1 -47 1 -66 1s-41 0 -68 -1s-43 -1 -49 -1zM144 702c40 0 60 -19 60 -57c0 -32 -23 -57 -62 -57
c-21 0 -36 7 -46 20c-9 11 -13 23 -13 38c0 29 21 56 61 56z" />
    <glyph glyph-name="j" unicode="j" horiz-adv-x="294" 
d="M144 702c40 0 60 -19 60 -57c0 -32 -22 -57 -61 -57c-21 0 -37 7 -48 20c-9 11 -14 23 -14 38c0 37 21 56 63 56zM-25 -216c89 41 134 117 134 226v380c-30 7 -58 14 -85 22v38c40 2 85 11 134 27h35v-457c0 -79 -27 -143 -82 -194c-33 -31 -73 -53 -119 -68z" />
    <glyph glyph-name="k" unicode="k" horiz-adv-x="537" 
d="M34 0v38c25 0 42 3 53 10c15 9 22 27 22 54v577c-30 7 -58 14 -85 22v38c40 2 85 11 134 27h35v-664c0 -27 8 -45 24 -54c10 -7 27 -10 51 -10v-38c-8 0 -25 0 -51 1c-25 1 -47 1 -66 1c-18 0 -40 0 -66 -1c-25 -1 -42 -1 -51 -1zM534 0c-9 0 -26 0 -49 1s-42 1 -56 1
c-36 0 -88 -2 -105 -2v38c27 0 40 6 40 18c0 8 -6 18 -18 30l-148 147l136 137c5 5 8 11 8 18c0 17 -22 32 -47 32v38c8 0 24 0 47 -1c24 -1 45 -1 64 -1s40 0 63 1s39 1 47 1v-38c-44 0 -86 -20 -127 -59l-104 -100l185 -188c23 -23 44 -35 64 -35v-38z" />
    <glyph glyph-name="l" unicode="l" horiz-adv-x="294" 
d="M34 0v38c25 0 42 3 53 10c15 9 22 27 22 54v577c-30 7 -58 14 -85 22v38c40 2 85 11 134 27h35v-664c0 -27 8 -45 24 -54c10 -7 27 -10 51 -10v-38c-8 0 -25 0 -51 1c-25 1 -47 1 -66 1c-18 0 -40 0 -66 -1c-25 -1 -42 -1 -51 -1z" />
    <glyph glyph-name="m" unicode="m" horiz-adv-x="907" 
d="M34 0v38c25 0 42 3 53 10c15 9 22 27 22 54v288c-30 7 -58 14 -85 22v38c40 2 85 11 134 27h33v-72c40 48 93 72 160 72c23 0 47 -6 70 -17c31 -15 52 -36 63 -64c45 54 102 81 171 81c35 0 65 -9 92 -27c39 -27 58 -68 58 -124v-224c0 -27 8 -45 24 -54
c10 -7 27 -10 51 -10v-38c-8 0 -25 0 -51 1c-25 1 -47 1 -66 1s-41 0 -68 -1s-43 -1 -49 -1v38c25 0 42 3 53 10c15 9 22 27 22 54v206c0 63 -45 102 -113 102c-23 0 -47 -6 -70 -18c-19 -11 -32 -22 -40 -33c2 -12 3 -24 3 -35v-222c0 -27 8 -45 24 -54
c10 -7 27 -10 51 -10v-38c-8 0 -25 0 -51 1c-25 1 -47 1 -66 1s-41 0 -68 -1s-43 -1 -49 -1v38c25 0 42 3 53 10c15 9 22 27 22 54v206c0 63 -45 102 -113 102c-24 0 -47 -5 -70 -16c-20 -9 -34 -19 -41 -30v-262c0 -27 8 -45 24 -54c10 -7 27 -10 51 -10v-38
c-8 0 -25 0 -51 1c-25 1 -47 1 -66 1s-41 0 -68 -1s-43 -1 -49 -1z" />
    <glyph glyph-name="n" unicode="n" horiz-adv-x="600" 
d="M34 0v38c25 0 42 3 53 10c15 9 22 27 22 54v288c-30 7 -58 14 -85 22v38c40 2 85 11 134 27h33v-72c40 48 93 72 160 72c35 0 65 -9 92 -27c39 -27 58 -68 58 -124v-224c0 -27 8 -45 24 -54c10 -7 27 -10 51 -10v-38c-8 0 -25 0 -51 1c-25 1 -47 1 -66 1s-41 0 -68 -1
s-43 -1 -49 -1v38c25 0 42 3 53 10c15 9 22 27 22 54v206c0 63 -45 102 -113 102c-24 0 -47 -5 -70 -16c-20 -9 -34 -19 -41 -30v-262c0 -27 8 -45 24 -54c10 -7 27 -10 51 -10v-38c-8 0 -25 0 -51 1c-25 1 -47 1 -66 1s-41 0 -68 -1s-43 -1 -49 -1z" />
    <glyph glyph-name="o" unicode="o" horiz-adv-x="565" 
d="M285 477c147 0 232 -95 232 -240c0 -75 -24 -135 -72 -181c-45 -43 -101 -65 -167 -65c-70 0 -126 21 -167 62c-43 43 -65 102 -65 177c0 72 25 132 74 179c47 45 102 68 165 68zM283 429c-51 0 -88 -22 -113 -65c-19 -34 -29 -77 -29 -129c0 -55 10 -99 31 -133
c25 -42 62 -63 112 -63c51 0 88 22 112 65c18 33 27 77 27 132c0 51 -10 93 -29 128c-24 43 -61 65 -111 65z" />
    <glyph glyph-name="p" unicode="p" horiz-adv-x="584" 
d="M34 -234v38c25 0 42 3 53 10c15 9 22 27 22 54v522c-30 7 -58 14 -85 22v38c40 2 85 11 134 27h33v-62c35 41 84 62 148 62c63 0 113 -23 150 -70c32 -42 48 -94 48 -156c0 -79 -25 -143 -75 -192c-46 -45 -101 -67 -164 -67c-47 0 -82 6 -105 19v-143
c0 -27 9 -45 26 -55c11 -6 30 -9 56 -9v-38c-8 0 -25 0 -52 1s-49 1 -68 1c-18 0 -41 0 -68 -1s-44 -1 -53 -1zM193 373v-296c27 -24 63 -36 107 -36s78 14 103 43c28 32 42 80 42 143c0 59 -14 105 -41 139c-27 32 -61 48 -104 48c-50 0 -86 -14 -107 -41z" />
    <glyph glyph-name="q" unicode="q" horiz-adv-x="555" 
d="M298 -234v38c26 0 45 3 56 9c17 10 26 28 26 55v183c-37 -41 -85 -62 -142 -62s-103 20 -140 61s-55 96 -55 164c0 80 23 144 69 191c46 48 107 72 182 72c23 0 47 -3 70 -10c21 -6 34 -12 40 -17l22 28h38v-610c0 -27 7 -45 22 -54c11 -7 28 -10 53 -10v-38
c-8 0 -26 0 -53 1s-49 1 -68 1c-18 0 -40 0 -67 -1s-44 -1 -53 -1zM380 97v301c-29 19 -60 28 -95 28c-102 0 -153 -64 -153 -192c0 -61 15 -107 45 -140c26 -28 59 -42 98 -42c43 0 78 15 105 45z" />
    <glyph glyph-name="r" unicode="r" horiz-adv-x="373" 
d="M34 0v38c25 0 42 3 53 10c15 9 22 27 22 54v288c-30 7 -58 14 -85 22v38c40 2 85 11 134 27h33v-88c7 19 23 37 46 56c28 21 57 32 87 32c13 0 26 -2 38 -6v-87c-28 5 -47 7 -58 7c-51 0 -88 -14 -111 -43v-246c0 -27 9 -45 26 -54c11 -7 30 -10 56 -10v-38
c-8 0 -25 0 -52 1s-49 1 -68 1c-18 0 -41 0 -68 -1s-44 -1 -53 -1z" />
    <glyph glyph-name="s" unicode="s" horiz-adv-x="415" 
d="M47 14c1 25 2 46 2 65s-1 41 -2 66h38c0 -73 39 -109 117 -109c63 0 94 25 94 76c0 32 -22 57 -65 75l-120 45c-43 23 -65 57 -65 103c0 48 19 85 57 111c31 21 67 31 108 31c45 0 103 -16 135 -16c-1 -23 -2 -44 -2 -63s1 -40 2 -63h-38c0 65 -33 97 -98 97
c-60 0 -90 -24 -90 -72c0 -27 22 -49 67 -67l123 -48c45 -24 67 -57 67 -100c0 -47 -19 -85 -57 -114c-35 -27 -77 -40 -125 -40c-27 0 -55 4 -84 11c-29 8 -50 12 -64 12z" />
    <glyph glyph-name="t" unicode="t" horiz-adv-x="349" 
d="M38 397l1 38c39 26 75 65 106 116h38l-2 -103h166v-51h-167l-4 -256c-1 -59 26 -89 79 -89c32 0 61 10 87 31l23 -31c-11 -14 -27 -26 -50 -37c-29 -15 -61 -22 -95 -22c-87 0 -130 38 -129 114l5 290h-58z" />
    <glyph glyph-name="u" unicode="u" horiz-adv-x="584" 
d="M14 412v38c50 3 93 12 129 27h35v-308c0 -75 36 -113 108 -113c45 0 82 15 113 46v288c-30 7 -58 14 -85 22v38c40 2 85 11 134 27h35v-401c16 -2 44 -8 85 -18v-38c-25 -1 -67 -11 -125 -30h-35v69c-39 -45 -94 -68 -165 -68c-89 0 -149 60 -149 167v232
c-17 4 -43 11 -80 22z" />
    <glyph glyph-name="v" unicode="v" horiz-adv-x="537" 
d="M7 420v38c10 -1 49 -1 117 -2c19 0 41 0 67 1c27 1 43 1 50 1v-38c-47 0 -71 -11 -71 -34c0 -6 2 -13 5 -21l113 -272l98 252c5 12 7 22 7 30c0 30 -20 45 -60 45v38c17 0 62 -2 98 -2c37 0 82 2 98 2v-38c-41 1 -72 -24 -92 -76l-134 -344h-69l-160 386
c-9 23 -32 34 -67 34z" />
    <glyph glyph-name="w" unicode="w" horiz-adv-x="825" 
d="M7 420v38c10 -1 49 -1 117 -2c19 0 41 0 67 1c27 1 43 1 50 1v-38c-47 0 -71 -11 -71 -34c0 -6 2 -13 5 -21l114 -275l95 243l-22 53c-9 23 -32 34 -67 34v38c10 -1 49 -1 117 -2c19 0 41 0 67 1c27 1 43 1 50 1v-38c-47 0 -71 -11 -71 -34c0 -6 2 -13 5 -21l113 -272
l98 252c5 12 7 22 7 30c0 30 -20 45 -60 45v38c17 0 62 -2 98 -2c37 0 82 2 98 2v-38c-41 1 -72 -24 -92 -76l-134 -344h-69l-113 272l-106 -272h-69l-160 386c-9 23 -32 34 -67 34z" />
    <glyph glyph-name="x" unicode="x" horiz-adv-x="519" 
d="M15 0v38c45 0 84 20 115 60l90 116l-136 171c-19 23 -43 35 -73 35v38c9 0 25 0 48 -1s44 -1 62 -1c19 0 40 0 63 1s39 1 47 1v-38c-32 0 -48 -6 -48 -17c0 -5 3 -12 10 -20l80 -101l67 87c7 10 11 19 11 26c0 17 -15 25 -46 25v38c17 0 63 -2 99 -2c37 0 83 2 99 2v-38
c-46 0 -84 -20 -115 -60l-87 -113l138 -175c15 -19 26 -29 35 -32c3 -1 16 -2 38 -2v-38c-8 0 -24 0 -47 1s-44 1 -63 1c-18 0 -39 0 -62 -1s-39 -1 -48 -1v38c32 0 48 5 48 16c0 6 -3 13 -10 21l-82 104l-70 -90c-7 -9 -11 -18 -11 -26c0 -17 15 -25 46 -25v-38
c-16 0 -62 2 -99 2c-36 0 -82 -2 -99 -2z" />
    <glyph glyph-name="y" unicode="y" horiz-adv-x="537" 
d="M7 420v38c10 -1 49 -1 117 -2c19 0 41 0 67 1c27 1 43 1 50 1v-38c-47 0 -71 -11 -71 -34c0 -6 2 -13 5 -21l113 -272l98 252c5 12 7 22 7 30c0 30 -20 45 -60 45v38c17 0 62 -2 98 -2c37 0 82 2 98 2v-38c-41 1 -71 -24 -92 -76l-159 -400c-21 -53 -45 -96 -71 -128
c-29 -35 -63 -53 -102 -53c-37 0 -69 11 -95 33l43 61c21 -13 43 -21 66 -22c45 -3 72 20 109 104l27 61h-21l-160 386c-9 23 -32 34 -67 34z" />
    <glyph glyph-name="z" unicode="z" horiz-adv-x="478" 
d="M24 -1v46l287 366h-164c-50 0 -75 -25 -75 -76c0 -6 0 -11 1 -16h-38c1 28 2 51 2 70s-1 42 -2 71c27 -3 128 -4 303 -4c21 0 50 0 85 1v-39l-296 -368h202c56 0 81 33 75 100h38c-1 -31 -2 -56 -2 -75s0 -44 1 -75c-43 0 -96 0 -161 1s-113 1 -144 1
c-21 0 -59 -1 -112 -3z" />
    <glyph glyph-name="braceleft" unicode="{" horiz-adv-x="313" 
d="M325 -235c-74 0 -127 16 -158 47c-21 21 -33 48 -38 81c-3 20 -5 63 -5 130c0 91 -6 152 -18 183s-36 47 -71 47v27c34 0 57 16 70 47s19 92 19 182c0 65 2 108 5 129c11 67 54 111 111 123c17 4 46 6 85 6v-29c-35 0 -54 -1 -59 -2c-37 -8 -66 -53 -66 -125
c0 -8 0 -25 1 -52s1 -50 1 -70c0 -123 -41 -198 -123 -224c82 -25 123 -99 123 -222c0 -20 0 -43 -1 -70s-1 -44 -1 -52c0 -72 29 -117 66 -125c5 -1 24 -2 59 -2v-29z" />
    <glyph glyph-name="bar" unicode="|" horiz-adv-x="280" 
d="M101 766h78v-999l-78 -1v1000z" />
    <glyph glyph-name="braceright" unicode="}" horiz-adv-x="313" 
d="M278 280v-27c-35 0 -58 -15 -70 -46c-11 -31 -17 -92 -17 -184c0 -67 -2 -110 -5 -130c-5 -33 -17 -60 -38 -81c-31 -31 -84 -47 -158 -47v29c35 0 54 1 59 2c37 8 66 53 66 125c0 8 0 25 -1 52s-1 50 -1 70c0 123 40 197 121 222c-81 26 -121 101 -121 224
c0 20 0 43 1 70s1 44 1 52c0 72 -29 117 -66 125c-5 1 -24 2 -59 2v29c39 0 68 -2 85 -6c57 -12 100 -56 111 -123c3 -21 5 -64 5 -129c0 -90 6 -151 18 -182c13 -31 36 -47 69 -47z" />
    <glyph glyph-name="asciitilde" unicode="~" horiz-adv-x="549" 
d="M158 222c-41 0 -73 -15 -96 -46l-24 27c43 59 89 89 140 89c17 0 55 -7 115 -22c49 -12 82 -18 99 -18c41 0 73 15 96 46l24 -27c-43 -59 -89 -89 -140 -89c-17 0 -55 7 -115 22c-49 12 -82 18 -99 18z" />
    <glyph glyph-name="exclamdown" unicode="&#xa1;" horiz-adv-x="294" 
d="M164 263c0 -3 5 -47 15 -132c10 -84 15 -150 15 -199c0 -73 -1 -116 -4 -130c-5 -24 -20 -36 -44 -36s-38 12 -42 36c-3 12 -4 55 -4 130c0 50 5 117 15 200c10 84 15 128 15 131h34zM146 469c41 0 61 -19 61 -56c0 -32 -27 -57 -60 -57c-15 0 -29 5 -41 14
c-14 11 -21 26 -21 43c0 35 25 56 61 56z" />
    <glyph glyph-name="cent" unicode="&#xa2;" horiz-adv-x="445" 
d="M427 78c-31 -47 -78 -75 -142 -85v-76h-46v74c-124 8 -199 94 -199 242c0 66 21 122 64 168c37 40 82 64 135 73v78h46v-75c65 0 112 -17 142 -51l-14 -78c-39 48 -82 72 -128 72v-364c45 0 85 18 119 53zM239 59v360c-27 -1 -51 -16 -72 -43c-26 -33 -39 -77 -39 -131
c0 -57 13 -103 38 -138c21 -31 46 -47 73 -48z" />
    <glyph glyph-name="sterling" unicode="&#xa3;" 
d="M547 74c0 -50 -32 -75 -95 -75c-39 0 -89 0 -149 1c-59 1 -95 2 -107 2c-19 0 -43 0 -73 -1c-29 -1 -48 -1 -56 -1v38c47 0 78 13 95 38c17 26 26 77 26 153c0 19 0 40 -1 64h-126v53h123l-4 90c-4 87 22 155 77 205c37 34 80 51 129 51s88 -13 119 -40l-42 -58
c-31 26 -67 39 -108 39c-25 0 -45 -7 -58 -21c-23 -24 -33 -79 -30 -166l3 -100h209v-53h-207c0 -61 -6 -107 -17 -140c-11 -30 -29 -59 -55 -86c47 -3 90 -4 130 -4c73 0 120 4 140 12c26 11 39 36 39 77h38v-78z" />
    <glyph glyph-name="fraction" unicode="&#x2044;" horiz-adv-x="1000" 
d="M721 742l-469 -847l-52 30l469 845z" />
    <glyph glyph-name="yen" unicode="&#xa5;" 
d="M596 645c-44 0 -81 -18 -111 -53l-145 -172v-73h152v-53h-152v-88h154v-53h-154v-51c0 -27 9 -45 27 -54c11 -7 30 -10 56 -10v-38c-8 0 -26 0 -54 1c-27 1 -50 1 -69 1c-18 0 -41 0 -70 -1s-47 -1 -56 -1v38c26 0 45 3 57 10c17 9 26 27 26 54v51h-149v53h149v88h-151
v53h151v39l-177 211c-27 32 -58 48 -94 48v38c8 0 25 0 52 -1s49 -1 67 -1c19 0 41 0 68 1s44 1 52 1v-38c-33 0 -49 -6 -49 -18c0 -7 5 -16 15 -28l117 -141l109 134c7 9 11 18 11 26c0 18 -19 27 -56 27v38c9 0 25 0 49 -1c25 -1 46 -1 64 -1c19 0 40 0 63 1
c24 1 40 1 48 1v-38z" />
    <glyph glyph-name="florin" unicode="&#x192;" 
d="M658 687c0 -36 -25 -62 -58 -62c-23 0 -45 16 -45 36c0 28 24 46 24 53c0 9 -13 14 -39 14c-39 0 -71 -21 -94 -63c-22 -39 -43 -111 -64 -216h127v-47h-138c-16 -100 -40 -206 -72 -318c-23 -79 -47 -136 -74 -173c-39 -53 -90 -79 -153 -79c-77 0 -115 26 -115 78
c0 41 20 61 59 61c30 0 45 -14 45 -41c0 -13 -5 -23 -16 -30c-10 -7 -15 -12 -15 -15c0 -11 15 -16 46 -16c44 0 79 27 104 82c12 25 29 81 51 168c17 68 38 162 63 283h-93v47h105c35 211 113 317 236 317c77 0 116 -26 116 -79z" />
    <glyph glyph-name="section" unicode="&#xa7;" horiz-adv-x="453" 
d="M410 375c0 -63 -32 -108 -97 -135c61 -23 92 -58 92 -105c0 -45 -19 -80 -56 -106c-37 -25 -82 -38 -137 -38c-31 0 -61 3 -90 9c-29 7 -49 10 -61 10c1 25 2 46 2 65s-1 41 -2 66h38c0 -71 40 -107 121 -107c71 0 106 25 106 75c0 23 -13 43 -40 58c-15 9 -46 20 -91 34
c-47 15 -81 29 -101 44c-31 23 -47 53 -48 90c-1 55 28 96 86 122c-47 19 -70 52 -70 100c0 42 18 76 54 102c31 23 74 34 127 34c23 0 49 -3 77 -8s48 -7 60 -7c-1 -20 -2 -39 -2 -58s1 -38 2 -59h-38c0 59 -35 89 -104 89c-68 0 -102 -24 -102 -71c0 -23 12 -41 36 -54
c14 -8 41 -17 82 -28c48 -13 83 -26 105 -40c34 -21 51 -48 51 -82zM335 340c0 31 -17 54 -50 70c-12 5 -47 15 -104 30c-41 -8 -62 -32 -62 -73c0 -28 14 -51 41 -68c19 -13 52 -25 99 -38c51 8 76 34 76 79z" />
    <glyph glyph-name="currency" unicode="&#xa4;" 
d="M515 165l-39 -39l-53 51c-37 -29 -79 -43 -125 -43c-47 0 -90 14 -127 41l-51 -48l-37 36l49 51c-27 39 -40 81 -40 127c0 45 14 86 42 124l-51 54l39 39l52 -51c38 28 79 42 124 42c50 0 93 -13 129 -40l49 47l37 -36l-47 -49c27 -36 40 -79 40 -128
c0 -45 -14 -87 -43 -125zM442 342c0 41 -13 77 -39 106c-28 30 -63 45 -105 45c-85 0 -141 -64 -141 -152c0 -43 13 -79 40 -108c27 -28 62 -42 103 -42c43 0 78 15 105 46c25 28 37 63 37 105z" />
    <glyph glyph-name="quotesingle" unicode="'" horiz-adv-x="219" 
d="M91 523c-19 103 -28 169 -28 199c0 35 11 44 47 44c39 0 47 -12 47 -44c0 -25 -10 -91 -29 -199h-37z" />
    <glyph glyph-name="quotedblleft" unicode="&#x201c;" horiz-adv-x="481" 
d="M205 732c-67 -13 -101 -48 -103 -105c7 1 13 2 20 1c41 -3 61 -22 61 -57c0 -33 -25 -57 -60 -57c-54 0 -81 34 -81 101c0 38 16 72 47 103c29 29 61 44 96 46zM422 732c-67 -13 -101 -48 -103 -105c7 1 13 2 20 1c41 -3 61 -22 61 -57c0 -33 -25 -57 -60 -57
c-54 0 -81 34 -81 101c0 38 16 72 47 103c29 29 61 44 96 46z" />
    <glyph glyph-name="guillemotleft" unicode="&#xab;" horiz-adv-x="425" 
d="M214 28h-46l-106 220l106 220h46l-67 -220zM364 28h-46l-106 220l106 220h46l-67 -220z" />
    <glyph glyph-name="guilsinglleft" unicode="&#x2039;" horiz-adv-x="276" 
d="M215 28h-46l-106 220l106 220h46l-67 -220z" />
    <glyph glyph-name="guilsinglright" unicode="&#x203a;" horiz-adv-x="276" 
d="M231 248l-106 -220h-46l67 220l-67 220h46z" />
    <glyph glyph-name="endash" unicode="&#x2013;" horiz-adv-x="500" 
d="M500 214h-500v50h500v-50z" />
    <glyph glyph-name="dagger" unicode="&#x2020;" horiz-adv-x="500" 
d="M475 460c0 -27 -18 -40 -55 -40c-16 0 -43 4 -81 11c-41 7 -65 11 -70 12c13 -200 20 -313 20 -340c0 -24 -2 -47 -7 -69c-7 -34 -17 -51 -32 -51c-13 0 -24 16 -32 48c-6 24 -9 48 -9 72c0 4 8 117 23 339c-8 0 -32 -4 -71 -11s-67 -11 -82 -11c-37 0 -55 13 -55 40
s18 40 55 40c16 0 43 -4 81 -11c43 -8 67 -12 72 -13c0 9 -4 38 -12 88c-7 50 -11 83 -11 98c0 26 14 39 41 39s40 -13 40 -39c0 -15 -4 -48 -11 -97c-7 -53 -11 -82 -12 -89c5 1 29 5 72 13c38 7 65 11 81 11c37 0 55 -13 55 -40z" />
    <glyph glyph-name="daggerdbl" unicode="&#x2021;" horiz-adv-x="500" 
d="M476 224c0 -27 -18 -40 -55 -40c-15 0 -42 4 -81 11c-39 8 -63 12 -72 12c1 -7 5 -36 13 -89c7 -49 11 -81 11 -97c0 -25 -14 -38 -41 -38s-40 13 -40 38c0 15 4 48 11 98c7 51 11 80 11 88c-7 0 -31 -4 -70 -12c-39 -7 -67 -11 -82 -11c-37 0 -55 13 -55 40
c0 26 18 39 55 39c15 0 42 -4 81 -12c39 -7 63 -11 70 -11c0 44 -10 78 -30 102c20 23 30 56 30 101c-7 -1 -31 -5 -71 -12c-39 -7 -67 -10 -82 -10c-37 0 -55 13 -55 39s18 39 55 39c15 0 43 -4 82 -11s63 -11 71 -11c-1 7 -5 36 -13 88c-7 49 -11 81 -11 96
c0 27 14 40 41 40s41 -13 41 -40c0 -15 -4 -47 -11 -96c-8 -51 -12 -80 -12 -88c8 0 32 4 72 11c38 7 65 11 80 11c37 0 55 -13 55 -39s-18 -39 -55 -39c-16 0 -43 3 -80 10c-41 7 -65 11 -71 12c0 -45 10 -78 30 -101c-20 -24 -30 -58 -30 -101c9 0 34 4 73 11s66 11 80 11
c37 0 55 -13 55 -39z" />
    <glyph glyph-name="paragraph" unicode="&#xb6;" horiz-adv-x="649" 
d="M586 700c-25 -32 -87 -53 -135 -53v-378h106v-45h-106v-61c0 -73 -23 -133 -68 -180c-41 -42 -81 -63 -122 -63s-71 10 -89 29l28 63c26 -18 55 -27 87 -27c31 0 51 10 62 31c9 18 14 52 14 102v106c-83 0 -149 16 -199 48c-61 40 -91 102 -91 186c0 89 31 154 93 193
c43 27 98 41 165 41h54c20 -1 33 -1 38 -1c54 0 97 16 128 47zM363 269v377c-40 0 -65 -16 -74 -47c-5 -17 -8 -64 -8 -141s3 -124 8 -142c9 -31 34 -47 74 -47z" />
    <glyph glyph-name="bullet" unicode="&#x2022;" horiz-adv-x="471" 
d="M380 350c0 -40 -14 -74 -43 -102c-28 -28 -62 -42 -102 -42s-74 14 -103 42c-28 28 -42 62 -42 102s14 74 42 102c29 29 63 43 103 43s74 -14 102 -43c29 -28 43 -62 43 -102z" />
    <glyph glyph-name="quotesinglbase" unicode="&#x201a;" horiz-adv-x="257" 
d="M204 -7c0 -38 -15 -72 -46 -101c-30 -30 -62 -46 -97 -48l-20 32c67 13 101 48 103 105c-5 -1 -9 -1 -14 -1c-45 0 -67 19 -67 57c0 33 25 57 60 57c54 0 81 -34 81 -101z" />
    <glyph glyph-name="quotedblbase" unicode="&#x201e;" horiz-adv-x="481" 
d="M61 -156l-20 32c67 13 101 48 103 105c-7 -1 -13 -2 -20 -1c-41 3 -61 22 -61 57c0 33 25 57 60 57c54 0 81 -34 81 -101c0 -38 -15 -72 -46 -101c-30 -30 -62 -46 -97 -48zM285 -156l-20 32c67 13 101 48 103 105c-7 -1 -13 -2 -20 -1c-41 3 -61 22 -61 57
c0 33 25 57 60 57c54 0 81 -34 81 -101c0 -38 -15 -72 -46 -101c-30 -30 -62 -46 -97 -48z" />
    <glyph glyph-name="quotedblright" unicode="&#x201d;" horiz-adv-x="481" 
d="M61 517l-20 32c67 13 101 48 103 105c-7 -1 -13 -2 -20 -1c-41 3 -61 22 -61 57c0 33 25 57 60 57c54 0 81 -34 81 -101c0 -38 -15 -72 -46 -102c-30 -29 -62 -45 -97 -47zM284 517l-20 32c67 13 101 48 103 105c-7 -1 -13 -2 -20 -1c-41 3 -61 22 -61 57
c0 33 25 57 60 57c54 0 81 -34 81 -101c0 -38 -15 -72 -46 -102c-30 -29 -62 -45 -97 -47z" />
    <glyph glyph-name="guillemotright" unicode="&#xbb;" horiz-adv-x="425" 
d="M214 248l-106 -220h-46l67 220l-67 220h46zM363 248l-106 -220h-46l67 220l-67 220h46z" />
    <glyph glyph-name="ellipsis" unicode="&#x2026;" horiz-adv-x="1000" 
d="M173 47c0 -32 -23 -57 -62 -57c-21 0 -36 7 -46 20c-9 11 -13 23 -13 38c0 29 21 56 61 56s60 -19 60 -57zM952 47c0 -32 -23 -57 -62 -57c-21 0 -36 7 -46 20c-9 11 -13 23 -13 38c0 29 21 56 61 56s60 -19 60 -57zM562 47c0 -32 -23 -57 -62 -57c-21 0 -36 7 -46 20
c-9 11 -13 23 -13 38c0 29 21 56 61 56s60 -19 60 -57z" />
    <glyph glyph-name="perthousand" unicode="&#x2030;" horiz-adv-x="1164" 
d="M1123 105c0 -49 -17 -90 -51 -124c-33 -34 -74 -51 -121 -51c-45 0 -84 16 -116 48s-48 73 -48 122c0 47 16 87 49 120c33 34 73 51 122 51c97 0 165 -66 165 -166zM1055 98c0 76 -37 132 -98 132c-37 0 -64 -15 -82 -45c-14 -23 -21 -51 -21 -84c0 -80 40 -128 101 -128
c34 0 60 13 78 40c15 23 22 51 22 85zM204 395c-97 0 -164 69 -164 170c0 47 16 87 49 120c33 34 73 51 122 51c97 0 165 -66 165 -166c0 -49 -17 -90 -51 -124c-33 -34 -74 -51 -121 -51zM172 -100l-52 30l477 836l53 -33zM556 -70c-97 0 -164 69 -164 170
c0 47 16 87 49 120c33 34 73 51 122 51c97 0 165 -66 165 -166c0 -49 -17 -90 -51 -124c-33 -34 -74 -51 -121 -51zM210 695c-37 0 -64 -15 -82 -45c-14 -23 -21 -51 -21 -84c0 -80 40 -128 101 -128c34 0 60 13 78 40c15 23 22 51 22 85c0 76 -37 132 -98 132zM562 230
c-37 0 -64 -15 -82 -45c-14 -23 -21 -51 -21 -84c0 -80 40 -128 101 -128c34 0 60 13 78 40c15 23 22 51 22 85c0 76 -37 132 -98 132z" />
    <glyph glyph-name="questiondown" unicode="&#xbf;" horiz-adv-x="453" 
d="M43 -21c0 109 48 177 143 203c29 7 59 15 88 22c27 8 41 18 41 31c0 21 -11 36 -32 45l30 28c31 -15 60 -65 60 -114c0 -26 -17 -46 -51 -59c-3 -1 -39 -11 -109 -29c-37 -9 -64 -21 -80 -34c-22 -19 -33 -46 -33 -82c0 -41 20 -76 61 -103c37 -25 81 -38 131 -38
c55 0 97 8 128 23l5 -75c-35 -21 -81 -31 -136 -31c-72 0 -131 20 -177 59s-69 90 -69 154zM240 414c0 35 25 56 61 56c41 0 61 -19 61 -56c0 -32 -27 -57 -60 -57c-15 0 -29 5 -41 14c-14 11 -21 26 -21 43z" />
    <glyph glyph-name="grave" unicode="`" horiz-adv-x="366" 
d="M273 582l-26 -28l-201 152l53 52z" />
    <glyph glyph-name="acute" unicode="&#xb4;" horiz-adv-x="472" 
d="M435 706l-201 -152l-26 28l174 176z" />
    <glyph glyph-name="circumflex" unicode="&#x2c6;" horiz-adv-x="471" 
d="M416 582l-30 -30l-140 117h-21l-140 -117l-30 30l147 145h68z" />
    <glyph glyph-name="tilde" unicode="&#x2dc;" horiz-adv-x="601" 
d="M469 656c-33 -44 -70 -66 -111 -66c-17 0 -40 6 -67 17s-47 17 -60 17c-31 0 -58 -16 -82 -48l-24 27c40 55 85 83 136 83c12 0 34 -7 66 -20c33 -13 55 -19 68 -19c15 0 30 10 47 30z" />
    <glyph glyph-name="breve" unicode="&#x2d8;" horiz-adv-x="472" 
d="M410 663c-51 -68 -110 -102 -177 -101s-124 35 -172 101l26 26c46 -43 96 -65 149 -65c57 0 107 22 148 65z" />
    <glyph glyph-name="dotaccent" unicode="&#x2d9;" horiz-adv-x="293" 
d="M144 702c40 0 60 -19 60 -57c0 -32 -23 -57 -62 -57c-21 0 -36 7 -46 20c-9 11 -13 23 -13 38c0 29 21 56 61 56z" />
    <glyph glyph-name="dieresis" unicode="&#xa8;" horiz-adv-x="472" 
d="M390 649c0 -33 -26 -51 -51 -51c-35 0 -52 17 -52 51c0 35 17 52 52 52c34 0 51 -17 51 -52zM194 649c0 -33 -26 -51 -51 -51c-35 0 -52 17 -52 51c0 35 17 52 52 52c34 0 51 -17 51 -52z" />
    <glyph glyph-name="ring" unicode="&#x2da;" horiz-adv-x="444" 
d="M305 661c0 -26 -11 -48 -32 -65s-44 -25 -68 -25c-22 0 -42 5 -61 16c-29 15 -44 40 -44 75c0 29 11 53 32 71c19 16 42 24 70 24c27 0 49 -7 68 -21c23 -17 35 -42 35 -75zM262 663c0 33 -28 58 -60 58c-39 0 -59 -19 -59 -56c0 -35 27 -59 60 -59c39 0 59 19 59 57z
" />
    <glyph glyph-name="cedilla" unicode="&#xb8;" horiz-adv-x="434" 
d="M361 -122c0 -26 -13 -50 -38 -73s-53 -34 -84 -34c-38 0 -65 9 -82 28l41 46c20 -13 43 -20 69 -20c33 0 49 10 49 30c0 17 -14 31 -42 41c-17 7 -47 14 -90 21v42l35 33h40l-25 -28c42 -9 72 -19 91 -30c24 -14 36 -33 36 -56z" />
    <glyph glyph-name="hungarumlaut" unicode="&#x2dd;" horiz-adv-x="672" 
d="M435 706l-201 -152l-26 28l174 176zM635 706l-201 -152l-26 28l174 176z" />
    <glyph glyph-name="ogonek" unicode="&#x2db;" horiz-adv-x="313" 
d="M272 -174c-21 -27 -54 -41 -100 -41c-35 0 -62 10 -82 31c-19 19 -28 42 -28 70c0 29 10 56 29 81c17 22 37 38 60 47l24 -19c-25 -17 -38 -43 -38 -79c0 -53 23 -80 69 -80c21 0 38 6 52 17z" />
    <glyph glyph-name="caron" unicode="&#x2c7;" horiz-adv-x="471" 
d="M54 697l30 30l140 -117h21l140 117l30 -30l-147 -145h-68z" />
    <glyph glyph-name="emdash" unicode="&#x2014;" horiz-adv-x="1000" 
d="M1000 214h-1000v50h1000v-50z" />
    <glyph glyph-name="AE" unicode="&#xc6;" horiz-adv-x="1006" 
d="M971 0l-385 2c-18 0 -41 0 -68 -1s-45 -1 -54 -1v38c23 0 40 2 49 6c17 8 26 24 26 49v234h-195l-139 -209c-8 -13 -12 -25 -12 -36c0 -29 22 -44 66 -44v-38c-8 0 -27 0 -58 1s-55 1 -74 1c-18 0 -39 0 -63 -1s-40 -1 -49 -1v38c47 -1 88 26 125 81l379 564
c28 -1 50 -1 67 -1c15 0 41 0 79 1h96c79 0 139 1 178 2c-1 -27 -2 -50 -2 -69s1 -42 2 -70h-36c0 39 -10 63 -30 73c-17 8 -57 12 -122 12c-43 0 -84 -1 -124 -2v-255h101c55 0 89 3 102 9c16 8 24 29 24 62h38c0 -16 -2 -65 -2 -102c0 -36 2 -85 2 -102h-39
c0 39 -8 64 -24 73c-13 9 -47 13 -101 13h-101v-206c0 -33 9 -54 28 -62c13 -5 48 -8 105 -8c68 0 111 4 130 13c29 13 43 43 43 90h38c-1 -33 -2 -58 -2 -77s1 -44 2 -77zM539 374v246l-164 -246h164z" />
    <glyph glyph-name="ordfeminine" unicode="&#xaa;" horiz-adv-x="279" 
d="M285 434l-58 -35c-5 1 -10 3 -15 6c-13 6 -24 16 -33 30c-25 -25 -50 -37 -77 -37c-44 0 -80 29 -80 72c0 39 21 65 64 79c23 8 50 13 80 15v34c0 36 -18 54 -55 54c-24 0 -46 -12 -65 -35l-21 17c11 35 53 66 105 66c63 0 95 -30 94 -89l-2 -124c0 -13 6 -23 18 -32
c7 -5 22 -12 45 -21zM166 465v68c-31 -3 -52 -7 -63 -12c-16 -7 -24 -18 -24 -34c0 -28 15 -42 44 -42c19 0 33 7 43 20zM262 299h-253v50h253v-50z" />
    <glyph glyph-name="Lslash" unicode="&#x141;" horiz-adv-x="525" 
d="M44 0v38c23 0 40 2 49 6c17 8 26 24 26 49v207l-107 -45l-22 51l129 54v230c0 25 -9 41 -26 49c-9 4 -26 6 -49 6v38c9 0 26 0 52 -1c27 -1 49 -1 67 -1c19 0 41 0 67 1c27 1 44 1 52 1v-38c-23 0 -40 -2 -49 -6c-17 -8 -26 -24 -26 -49v-192l153 65l22 -51l-175 -74
v-217c0 -33 9 -54 28 -62c13 -5 48 -8 105 -8c49 0 82 7 99 21s25 41 25 82h38c-1 -33 -2 -58 -2 -77s1 -44 2 -77l-336 2c-18 0 -41 0 -68 -1s-45 -1 -54 -1z" />
    <glyph glyph-name="Oslash" unicode="&#xd8;" horiz-adv-x="851" 
d="M642 519l-383 -410c43 -50 103 -75 178 -75c71 0 127 24 170 73c46 53 69 127 69 223c0 75 -11 138 -34 189zM230 153l385 414c-40 55 -99 83 -176 83s-138 -28 -183 -85c-45 -56 -67 -129 -67 -220c0 -75 14 -139 41 -192zM168 87c-55 63 -83 144 -83 243
c0 109 33 198 98 267c66 69 153 104 261 104c91 0 165 -26 224 -78l106 114l38 -36l-108 -116c50 -64 75 -145 75 -243s-31 -181 -92 -249c-66 -73 -153 -110 -260 -110c-88 0 -162 23 -221 69l-98 -105l-39 34z" />
    <glyph glyph-name="OE" unicode="&#x152;" horiz-adv-x="1014" 
d="M971 0c-77 0 -203 0 -378 1c-14 0 -39 -1 -75 -2c-36 -2 -66 -3 -89 -3c-115 0 -204 33 -269 99c-60 61 -90 142 -90 243c0 98 32 180 95 245c67 69 156 103 266 103c22 0 48 -1 79 -2s54 -2 67 -2c17 0 45 0 85 1h99c79 0 139 1 178 2c-1 -27 -2 -50 -2 -69s1 -42 2 -70
h-36c0 39 -10 63 -30 73c-17 8 -57 12 -122 12c-43 0 -84 -1 -124 -2v-251h101c55 0 89 3 102 9c16 8 24 29 24 62h38c0 -16 -2 -65 -2 -102c0 -36 2 -85 2 -102h-39c0 39 -8 64 -24 73c-13 9 -47 13 -101 13h-101v-210c0 -33 9 -54 28 -62c13 -5 48 -8 105 -8
c68 0 111 4 130 13c29 13 43 43 43 90h38c-1 -33 -2 -58 -2 -77s1 -44 2 -77zM539 60v564c-35 8 -71 12 -106 12c-88 0 -154 -30 -199 -89c-39 -52 -59 -122 -59 -210c0 -95 24 -168 72 -219c45 -48 104 -72 178 -72c47 0 85 5 114 14z" />
    <glyph glyph-name="ordmasculine" unicode="&#xba;" horiz-adv-x="322" 
d="M306 551c0 -47 -15 -84 -44 -112s-64 -42 -105 -42c-88 0 -145 55 -145 150c0 45 15 81 45 110s65 43 104 43c91 0 145 -60 145 -149zM285 299h-253v50h253v-50zM239 550c0 29 -5 53 -16 73c-14 25 -35 37 -63 37c-53 0 -80 -37 -80 -110c0 -75 27 -113 80 -113
s79 38 79 113z" />
    <glyph glyph-name="ae" unicode="&#xe6;" horiz-adv-x="700" 
d="M576 290c0 35 -8 66 -25 92c-20 31 -48 46 -85 46c-34 0 -62 -15 -83 -44c-19 -26 -30 -57 -31 -94h224zM269 217c-57 -7 -96 -15 -118 -24c-31 -13 -46 -34 -46 -63c0 -24 9 -43 26 -58c15 -14 35 -21 58 -21c35 0 61 13 79 39zM305 79c-41 -58 -91 -87 -152 -87
c-68 0 -123 45 -123 110c0 60 33 101 100 124c41 14 87 22 139 25v64c0 35 -11 61 -33 79c-18 14 -41 21 -68 21c-43 0 -79 -19 -110 -57l-23 20c9 25 27 47 56 66c33 22 69 33 110 33c60 0 103 -22 129 -65c39 43 88 65 147 65c58 0 104 -20 137 -60c33 -39 50 -90 50 -151
v-18l-313 1c0 -70 18 -121 54 -153c26 -23 60 -35 101 -35c55 0 98 17 128 51l23 -31c-11 -18 -29 -35 -54 -52c-39 -25 -84 -38 -134 -38c-73 0 -128 29 -164 88z" />
    <glyph glyph-name="dotlessi" unicode="&#x131;" horiz-adv-x="294" 
d="M34 0v38c25 0 42 3 53 10c15 9 22 27 22 54v288c-30 7 -58 14 -85 22v38c40 2 85 11 134 27h35v-375c0 -27 8 -45 24 -54c10 -7 27 -10 51 -10v-38c-8 0 -25 0 -51 1c-25 1 -47 1 -66 1s-41 0 -68 -1s-43 -1 -49 -1z" />
    <glyph glyph-name="lslash" unicode="&#x142;" horiz-adv-x="294" 
d="M34 0v38c25 0 42 3 53 10c15 9 22 27 22 54v173l-89 -60l-28 42l117 79v343c-30 7 -58 14 -85 22v38c40 2 85 11 134 27h35v-373l102 69l29 -42l-131 -88v-230c0 -27 8 -45 24 -54c10 -7 27 -10 51 -10v-38c-8 0 -25 0 -51 1c-25 1 -47 1 -66 1c-18 0 -40 0 -66 -1
c-25 -1 -42 -1 -51 -1z" />
    <glyph glyph-name="oslash" unicode="&#xf8;" horiz-adv-x="565" 
d="M399 355l-209 -278c24 -25 55 -38 94 -38c51 0 88 22 112 65c18 33 27 77 27 132c0 47 -8 87 -24 119zM163 118l208 276c-23 23 -53 35 -88 35c-51 0 -88 -22 -113 -65c-19 -34 -29 -77 -29 -129c0 -46 7 -85 22 -117zM112 51c-44 43 -66 102 -66 179c0 72 25 132 74 179
c47 45 102 68 165 68c47 0 89 -10 126 -30l57 76l36 -28l-56 -75c46 -44 69 -105 69 -183c0 -75 -24 -135 -72 -181c-45 -43 -101 -65 -167 -65c-49 0 -92 11 -129 32l-58 -77l-36 29z" />
    <glyph glyph-name="oe" unicode="&#x153;" horiz-adv-x="864" 
d="M740 290c0 35 -8 66 -25 92c-20 31 -48 46 -85 46c-34 0 -62 -15 -83 -44c-19 -26 -30 -57 -31 -94h224zM285 429c-51 0 -89 -22 -114 -65c-20 -35 -30 -78 -30 -129c0 -55 10 -99 31 -133c25 -42 62 -63 112 -63c93 0 139 66 139 197c0 51 -9 94 -28 128
c-24 43 -61 65 -110 65zM467 82c-47 -61 -110 -91 -189 -91c-70 0 -126 21 -167 62c-43 43 -65 102 -65 177c0 72 25 132 74 179c47 45 102 68 165 68c83 0 145 -29 187 -87c39 58 96 87 169 87c58 0 104 -20 137 -60c33 -39 50 -90 50 -151v-18l-313 1
c0 -70 18 -121 54 -153c26 -23 60 -35 101 -35c55 0 98 17 128 51l23 -31c-11 -18 -29 -35 -54 -52c-39 -25 -84 -38 -134 -38c-75 0 -130 30 -166 91z" />
    <glyph glyph-name="germandbls" unicode="&#xdf;" horiz-adv-x="640" 
d="M604 592c0 -45 -18 -82 -55 -111c-3 -2 -37 -22 -104 -59c-37 -21 -55 -44 -55 -69c0 -27 18 -49 55 -68c34 -17 68 -33 103 -50c37 -24 55 -56 55 -96c0 -43 -19 -79 -57 -107c-37 -27 -80 -41 -129 -41c-41 0 -78 10 -111 29v90c42 -41 87 -61 134 -61
c57 0 86 21 86 62c0 27 -19 50 -57 69c-35 17 -69 35 -104 52c-38 25 -57 57 -57 98c0 38 19 69 56 93c35 19 69 37 104 55c37 23 56 53 56 90c0 57 -22 98 -66 125c-30 18 -64 27 -101 27c-51 0 -88 -12 -111 -37c-30 -33 -45 -91 -45 -176v-404c0 -27 6 -46 19 -55
c9 -7 25 -10 48 -10v-38c-8 0 -24 0 -48 1c-23 1 -44 1 -63 1h-66c-25 -1 -41 -1 -47 -1v38c25 0 42 3 52 10c14 9 21 27 21 54v299h-73v38c31 2 55 10 72 25c1 16 2 41 3 75c3 63 28 117 76 160c48 44 109 66 182 66c53 0 99 -10 138 -29c59 -29 89 -78 89 -145z" />
    <glyph glyph-name="onesuperior" unicode="&#xb9;" horiz-adv-x="344" 
d="M132 609c0 37 -25 55 -76 55v29c9 0 25 0 49 -1s45 -1 63 -1c19 0 40 0 64 1s40 1 48 1v-28c-51 0 -76 -19 -76 -56v-235c0 -37 25 -56 76 -56v-28c-8 0 -24 0 -48 1s-45 1 -64 1c-18 0 -39 0 -63 -1s-40 -1 -49 -1v29c51 0 76 18 76 55v235z" />
    <glyph glyph-name="logicalnot" unicode="&#xac;" horiz-adv-x="549" 
d="M442 303h-404v66h474v-262h-70v196z" />
    <glyph glyph-name="mu" unicode="&#xb5;" horiz-adv-x="584" 
d="M269 -174l-77 -48c-37 25 -64 69 -83 132c-11 39 -17 121 -17 248v319h84v-308c0 -38 11 -67 33 -88c19 -18 45 -27 77 -27c47 0 84 16 113 48v375h84v-337c0 -41 30 -75 91 -100l-77 -48c-11 5 -22 11 -32 18c-23 17 -40 37 -50 62c-41 -54 -94 -81 -161 -81
c-62 0 -103 25 -122 75c3 -40 12 -77 27 -111c11 -27 29 -53 52 -79c23 -27 43 -43 58 -50z" />
    <glyph glyph-name="trademark" unicode="&#x2122;" horiz-adv-x="1002" 
d="M895 672c-19 0 -33 -1 -41 -4c-13 -6 -20 -18 -20 -35v-192c0 -15 7 -25 20 -30c6 -2 18 -3 35 -3v-30c-7 0 -19 0 -37 1h-95c-19 -1 -31 -1 -37 -1v30c17 0 29 1 35 3c13 5 20 15 20 30v186l-114 -249h-36l-114 249v-182c0 -25 18 -37 54 -37v-30c-6 0 -16 0 -31 1h-85
c-14 -1 -24 -1 -31 -1v30c37 0 55 12 55 37v194c0 15 -6 25 -17 29c-7 3 -19 4 -38 4v30c29 -1 51 -2 64 -2c14 0 36 1 65 2l113 -252l113 252c27 -1 47 -2 61 -2c13 0 34 1 61 2v-30zM368 603h-28c0 21 -2 36 -7 43c-7 11 -20 16 -41 16c-26 0 -47 0 -62 -1v-220
c0 -15 7 -25 20 -30c6 -2 18 -3 35 -3v-30c-7 0 -19 0 -37 1h-95c-18 -1 -30 -1 -37 -1v30c17 0 29 1 35 3c13 5 20 15 20 30v220c-11 1 -30 1 -56 1c-21 0 -35 -5 -41 -16c-5 -7 -7 -22 -7 -43h-29c1 19 1 35 1 48c0 15 0 32 -1 51c23 0 55 0 96 -1c42 -1 65 -1 69 -1
c5 0 28 0 69 1s73 1 96 1l-1 -51c0 15 0 -1 1 -48z" />
    <glyph glyph-name="Eth" unicode="&#xd0;" horiz-adv-x="800" 
d="M44 0v38c23 0 40 2 49 6c17 8 26 24 26 49v223h-122v51h122v223c0 25 -10 41 -31 49c-11 4 -29 6 -54 6v38h59c31 -1 55 -1 73 -1c15 0 41 0 79 1s71 2 99 2c118 0 211 -23 280 -70c80 -55 120 -139 120 -252c0 -107 -31 -193 -92 -259c-67 -73 -163 -109 -286 -109
c-23 0 -59 1 -106 3s-79 3 -94 3h-68c-27 -1 -45 -1 -54 -1zM207 623v-256h147v-51h-147v-195c0 -33 19 -55 58 -65c21 -5 56 -8 106 -8c85 0 150 25 197 74c50 53 75 130 75 233c0 97 -31 168 -92 215c-54 41 -129 61 -225 61c-43 0 -82 -3 -119 -8z" />
    <glyph glyph-name="onehalf" unicode="&#xbd;" horiz-adv-x="1000" 
d="M270 290c-8 0 -24 0 -48 1s-45 1 -64 1c-18 0 -39 0 -63 -1s-40 -1 -49 -1v29c51 0 76 18 76 55v235c0 37 -25 55 -76 55v29c9 0 25 0 49 -1s45 -1 63 -1c19 0 40 0 64 1s40 1 48 1v-28c-51 0 -76 -19 -76 -56v-235c0 -37 25 -56 76 -56v-28zM962 0h-355v24
c28 22 73 59 136 110c29 25 49 45 59 58c18 23 27 48 27 74c0 55 -29 83 -87 83c-56 0 -86 -26 -86 -61c0 -18 4 -31 13 -39l-27 -18c-16 10 -24 32 -24 67c0 28 11 53 33 74c27 27 66 40 116 40c49 0 87 -12 113 -37c22 -21 33 -48 33 -80c0 -28 -10 -55 -29 -81
c-12 -16 -34 -38 -66 -67c-23 -21 -59 -50 -107 -87h251v-60zM721 742l-469 -847l-52 30l469 845z" />
    <glyph glyph-name="plusminus" unicode="&#xb1;" horiz-adv-x="549" 
d="M240 132v204h-202v66h202v204h70v-204h202v-66h-202v-204h-70zM38 0v66h474v-66h-474z" />
    <glyph glyph-name="Thorn" unicode="&#xde;" horiz-adv-x="610" 
d="M539 368c0 -63 -23 -116 -68 -157s-101 -61 -168 -61c-29 0 -56 3 -80 10v44c26 -8 53 -12 80 -12c91 0 142 63 142 156c0 104 -52 156 -156 156c-26 0 -53 -2 -82 -5v-406c0 -25 10 -42 30 -49c10 -4 30 -6 59 -6v-38c-8 0 -27 0 -57 1s-54 1 -73 1c-18 0 -41 0 -68 -1
s-45 -1 -54 -1v38c23 0 40 2 49 6c17 8 26 24 26 49v497c0 25 -9 41 -26 49c-9 4 -26 6 -49 6v38c9 0 26 0 52 -1c27 -1 49 -1 67 -1c19 0 41 0 67 1c27 1 44 1 52 1v-38c-23 0 -40 -2 -49 -6c-17 -8 -26 -24 -26 -49v-41c33 3 69 5 108 5c73 0 129 -17 168 -52
c37 -33 56 -77 56 -134z" />
    <glyph glyph-name="onequarter" unicode="&#xbc;" horiz-adv-x="1000" 
d="M270 290c-8 0 -24 0 -48 1s-45 1 -64 1c-18 0 -39 0 -63 -1s-40 -1 -49 -1v29c51 0 76 18 76 55v235c0 37 -25 55 -76 55v29c9 0 25 0 49 -1s45 -1 63 -1c19 0 40 0 64 1s40 1 48 1v-28c-51 0 -76 -19 -76 -56v-235c0 -37 25 -56 76 -56v-28zM867 122v-38
c0 -37 25 -56 76 -56v-28c-8 0 -24 0 -48 1s-45 1 -64 1c-18 0 -39 0 -63 -1s-40 -1 -49 -1v29c51 0 76 18 76 55v38h-234v43l263 251h43v-238h132v-56h-132zM795 178v157l-165 -157h165zM721 742l-469 -847l-52 30l469 845z" />
    <glyph glyph-name="divide" unicode="&#xf7;" horiz-adv-x="549" 
d="M336 427c0 -33 -25 -57 -61 -57c-21 0 -37 7 -48 20c-9 11 -13 23 -13 37c0 28 20 56 60 56c41 0 62 -19 62 -56zM335 47c0 -32 -23 -57 -62 -57c-21 0 -36 7 -46 20c-9 11 -13 23 -13 38c0 29 21 56 61 56s60 -19 60 -57zM38 204v66h474v-66h-474z" />
    <glyph glyph-name="brokenbar" unicode="&#xa6;" horiz-adv-x="280" 
d="M101 -234l1 400h77v-399zM102 366l-1 400h78l1 -400h-78z" />
    <glyph glyph-name="degree" unicode="&#xb0;" 
d="M443 556c0 -41 -14 -75 -41 -104c-27 -28 -61 -42 -103 -42c-87 0 -144 59 -144 146c0 41 14 75 41 103c28 29 62 43 103 43c45 0 80 -14 107 -43c25 -27 37 -61 37 -103zM401 556c0 60 -42 109 -102 109c-61 0 -100 -48 -100 -109c0 -31 9 -56 26 -76
c19 -22 43 -33 74 -33c64 0 102 45 102 109z" />
    <glyph glyph-name="thorn" unicode="&#xfe;" horiz-adv-x="584" 
d="M445 227c0 59 -14 105 -41 139c-27 32 -61 48 -104 48c-50 0 -86 -14 -107 -41v-296c27 -24 63 -36 107 -36s78 14 103 43c28 32 42 80 42 143zM109 679c-30 7 -58 14 -85 22v38c40 2 85 11 134 27h35l-2 -351c35 41 84 62 148 62c63 0 113 -23 150 -70
c32 -42 48 -94 48 -156c0 -79 -25 -143 -75 -192c-46 -45 -101 -67 -164 -67c-47 0 -82 6 -105 19v-143c0 -27 9 -45 26 -55c11 -6 30 -9 56 -9v-38c-8 0 -25 0 -52 1s-49 1 -68 1c-18 0 -41 0 -68 -1s-44 -1 -53 -1v38c25 0 42 3 53 10c15 9 22 27 22 54v811z" />
    <glyph glyph-name="threequarters" unicode="&#xbe;" horiz-adv-x="1000" 
d="M999 122h-132v-38c0 -37 25 -56 76 -56v-28c-8 0 -24 0 -48 1s-45 1 -64 1c-18 0 -39 0 -63 -1s-40 -1 -49 -1v29c51 0 76 18 76 55v38h-234v43l263 251h43v-238h132v-56zM795 178v157l-165 -157h165zM161 702c97 0 145 -32 145 -96c0 -24 -14 -46 -43 -65
c-18 -13 -38 -23 -61 -30c91 -14 136 -52 136 -113c0 -75 -71 -116 -179 -116c-73 0 -125 28 -155 83l22 26c21 -37 73 -67 129 -67c66 0 99 22 99 66c0 47 -53 73 -158 80v33c84 13 126 41 126 82s-30 61 -89 61c-46 0 -69 -17 -69 -50c0 -14 5 -26 15 -36l-27 -19
c-17 11 -26 33 -26 67c0 23 11 43 32 62c25 21 60 32 103 32zM751 742l-469 -847l-52 30l469 845z" />
    <glyph glyph-name="twosuperior" unicode="&#xb2;" horiz-adv-x="698" 
d="M384 290h-355v24c28 22 73 59 136 110c29 25 49 45 59 58c18 23 27 48 27 74c0 55 -29 83 -87 83c-56 0 -86 -26 -86 -61c0 -18 4 -31 13 -39l-27 -18c-16 10 -24 32 -24 67c0 28 11 53 33 74c27 27 66 40 116 40c49 0 87 -12 113 -37c22 -21 33 -48 33 -80
c0 -28 -10 -55 -29 -81c-12 -16 -34 -38 -66 -67c-23 -21 -59 -50 -107 -87h251v-60z" />
    <glyph glyph-name="registered" unicode="&#xae;" horiz-adv-x="903" 
d="M818 336c0 -109 -35 -196 -105 -260c-67 -61 -154 -92 -259 -92c-97 0 -179 26 -246 77c-82 63 -123 154 -123 275c0 111 36 199 107 265c67 62 154 93 260 93c100 0 183 -27 249 -81c78 -64 117 -156 117 -277zM775 336c0 106 -33 188 -100 247c-59 52 -132 78 -221 78
c-94 0 -170 -25 -227 -75c-65 -56 -97 -137 -97 -244c0 -123 42 -212 126 -267c57 -39 126 -58 206 -58c92 0 166 27 223 82c60 57 90 136 90 237zM385 313v-103c0 -30 18 -45 55 -45v-28c-16 0 -49 2 -86 2h-50c-15 -1 -27 -1 -36 -1v28c37 0 55 15 55 45v256
c0 30 -21 45 -64 45v28h37c21 -1 41 -1 60 -1c20 0 48 1 83 2c103 4 159 -35 159 -106c0 -48 -29 -85 -87 -112c86 -107 140 -159 162 -154v-28c-9 -3 -21 -4 -36 -4c-33 0 -57 8 -73 23c-15 16 -29 32 -42 47c-31 36 -57 69 -76 100c-13 1 -33 3 -61 6zM530 428
c0 54 -30 81 -91 81c-13 0 -31 -1 -54 -3v-165c20 -4 43 -6 68 -6c45 0 77 41 77 93z" />
    <glyph glyph-name="minus" unicode="&#x2212;" horiz-adv-x="549" 
d="M38 204v66h474v-66h-474z" />
    <glyph glyph-name="eth" unicode="&#xf0;" horiz-adv-x="578" 
d="M68 619l-10 48c41 17 85 26 133 26c84 0 151 -21 202 -64l139 35l12 -48l-113 -28c45 -63 67 -153 67 -270c0 -219 -80 -328 -241 -328c-73 0 -127 25 -163 76c-30 41 -45 96 -45 163c0 79 21 140 64 184c41 43 96 64 165 64c49 0 87 -9 113 -28c0 52 -13 92 -40 119
l-171 -43l-12 48l143 36c-33 23 -75 35 -124 35c-36 0 -76 -8 -119 -25zM282 432c-43 0 -76 -13 -98 -38c-27 -31 -41 -84 -41 -157c0 -135 41 -202 124 -202c91 0 136 74 136 221c0 55 -5 95 -16 118c-18 39 -53 58 -105 58z" />
    <glyph glyph-name="multiply" unicode="&#xd7;" horiz-adv-x="549" 
d="M119 37l-45 45l155 155l-156 156l47 47l156 -156l155 155l45 -45l-155 -155l156 -156l-47 -47l-156 156z" />
    <glyph glyph-name="threesuperior" unicode="&#xb3;" horiz-adv-x="698" 
d="M178 702c97 0 145 -32 145 -96c0 -24 -14 -46 -43 -65c-18 -13 -38 -23 -61 -30c91 -14 136 -52 136 -113c0 -75 -71 -116 -179 -116c-73 0 -125 28 -155 83l22 26c21 -37 73 -67 129 -67c66 0 99 22 99 66c0 47 -53 73 -158 80v33c84 13 126 41 126 82s-30 61 -89 61
c-46 0 -69 -17 -69 -50c0 -14 5 -26 15 -36l-27 -19c-17 11 -26 33 -26 67c0 23 11 43 32 62c25 21 60 32 103 32z" />
    <glyph glyph-name="copyright" unicode="&#xa9;" horiz-adv-x="903" 
d="M610 148c-12 0 -33 -3 -62 -8s-54 -7 -75 -7c-77 0 -135 23 -176 68c-35 38 -52 85 -52 140c0 131 92 206 235 206c63 0 108 -12 128 -12c-1 -15 -2 -31 -2 -50s1 -35 2 -49h-28c0 31 -11 51 -32 62c-15 7 -39 11 -72 11c-61 0 -105 -14 -131 -43
c-23 -25 -34 -63 -34 -116c0 -50 14 -91 42 -124c33 -37 79 -56 139 -56s90 23 90 68h28c-1 -11 -2 -26 -2 -45s1 -34 2 -45zM818 336c0 -109 -35 -196 -105 -260c-67 -61 -154 -92 -259 -92c-97 0 -179 26 -246 77c-82 63 -123 154 -123 275c0 111 36 199 107 265
c67 62 154 93 260 93c100 0 183 -27 249 -81c78 -64 117 -156 117 -277zM775 336c0 106 -33 188 -100 247c-59 52 -132 78 -221 78c-94 0 -170 -25 -227 -75c-65 -56 -97 -137 -97 -244c0 -123 42 -212 126 -267c57 -39 126 -58 206 -58c92 0 166 27 223 82
c60 57 90 136 90 237z" />
    <glyph glyph-name="Aacute" unicode="&#xc1;" horiz-adv-x="751" 
d="M15 0v38c29 -1 51 8 66 25c8 10 19 33 34 70l220 550h77l219 -543c18 -44 32 -71 42 -82c13 -13 34 -20 63 -20v-38c-8 0 -26 0 -54 1s-51 1 -70 1c-18 0 -41 0 -69 -1s-46 -1 -55 -1v38c41 2 62 13 62 34c0 13 -6 35 -18 65l-57 144h-241l-55 -147
c-7 -17 -10 -32 -10 -45c0 -34 24 -51 71 -51v-38c-8 0 -24 0 -49 1c-24 1 -45 1 -64 1c-18 0 -39 0 -63 -1s-40 -1 -49 -1zM252 328h204l-102 260zM536 876l-201 -152l-26 28l174 176z" />
    <glyph glyph-name="Acircumflex" unicode="&#xc2;" horiz-adv-x="751" 
d="M15 0v38c29 -1 51 8 66 25c8 10 19 33 34 70l220 550h77l219 -543c18 -44 32 -71 42 -82c13 -13 34 -20 63 -20v-38c-8 0 -26 0 -54 1s-51 1 -70 1c-18 0 -41 0 -69 -1s-46 -1 -55 -1v38c41 2 62 13 62 34c0 13 -6 35 -18 65l-57 144h-241l-55 -147
c-7 -17 -10 -32 -10 -45c0 -34 24 -51 71 -51v-38c-8 0 -24 0 -49 1c-24 1 -45 1 -64 1c-18 0 -39 0 -63 -1s-40 -1 -49 -1zM252 328h204l-102 260zM554 752l-30 -30l-140 117h-21l-140 -117l-30 30l147 145h68z" />
    <glyph glyph-name="Adieresis" unicode="&#xc4;" horiz-adv-x="751" 
d="M523 819c0 -33 -26 -51 -51 -51c-35 0 -52 17 -52 51c0 35 17 52 52 52c34 0 51 -17 51 -52zM327 819c0 -33 -26 -51 -51 -51c-35 0 -52 17 -52 51c0 35 17 52 52 52c34 0 51 -17 51 -52zM15 0v38c29 -1 51 8 66 25c8 10 19 33 34 70l220 550h77l219 -543
c18 -44 32 -71 42 -82c13 -13 34 -20 63 -20v-38c-8 0 -26 0 -54 1s-51 1 -70 1c-18 0 -41 0 -69 -1s-46 -1 -55 -1v38c41 2 62 13 62 34c0 13 -6 35 -18 65l-57 144h-241l-55 -147c-7 -17 -10 -32 -10 -45c0 -34 24 -51 71 -51v-38c-8 0 -24 0 -49 1c-24 1 -45 1 -64 1
c-18 0 -39 0 -63 -1s-40 -1 -49 -1zM252 328h204l-102 260z" />
    <glyph glyph-name="Agrave" unicode="&#xc0;" horiz-adv-x="751" 
d="M438 752l-26 -28l-201 152l53 52zM736 0c-8 0 -26 0 -54 1s-51 1 -70 1c-18 0 -41 0 -69 -1s-46 -1 -55 -1v38c41 2 62 13 62 34c0 13 -6 35 -18 65l-57 144h-241l-55 -147c-7 -17 -10 -32 -10 -45c0 -34 24 -51 71 -51v-38c-8 0 -24 0 -49 1c-24 1 -45 1 -64 1
c-18 0 -39 0 -63 -1s-40 -1 -49 -1v38c29 -1 51 8 66 25c8 10 19 33 34 70l220 550h77l219 -543c18 -44 32 -71 42 -82c13 -13 34 -20 63 -20v-38zM456 328l-102 260l-102 -260h204z" />
    <glyph glyph-name="Aring" unicode="&#xc5;" horiz-adv-x="751" 
d="M476 831c0 -26 -11 -48 -32 -65s-44 -25 -68 -25c-22 0 -42 5 -61 16c-29 15 -44 40 -44 75c0 29 11 53 32 71c19 16 42 24 70 24c27 0 49 -7 68 -21c23 -17 35 -42 35 -75zM433 833c0 33 -28 58 -60 58c-39 0 -59 -19 -59 -56c0 -35 27 -59 60 -59c39 0 59 19 59 57z
M15 0v38c29 -1 51 8 66 25c8 10 19 33 34 70l220 550h77l219 -543c18 -44 32 -71 42 -82c13 -13 34 -20 63 -20v-38c-8 0 -26 0 -54 1s-51 1 -70 1c-18 0 -41 0 -69 -1s-46 -1 -55 -1v38c41 2 62 13 62 34c0 13 -6 35 -18 65l-57 144h-241l-55 -147c-7 -17 -10 -32 -10 -45
c0 -34 24 -51 71 -51v-38c-8 0 -24 0 -49 1c-24 1 -45 1 -64 1c-18 0 -39 0 -63 -1s-40 -1 -49 -1zM252 328h204l-102 260z" />
    <glyph glyph-name="Atilde" unicode="&#xc3;" horiz-adv-x="751" 
d="M15 0v38c29 -1 51 8 66 25c8 10 19 33 34 70l220 550h77l219 -543c18 -44 32 -71 42 -82c13 -13 34 -20 63 -20v-38c-8 0 -26 0 -54 1s-51 1 -70 1c-18 0 -41 0 -69 -1s-46 -1 -55 -1v38c41 2 62 13 62 34c0 13 -6 35 -18 65l-57 144h-241l-55 -147
c-7 -17 -10 -32 -10 -45c0 -34 24 -51 71 -51v-38c-8 0 -24 0 -49 1c-24 1 -45 1 -64 1c-18 0 -39 0 -63 -1s-40 -1 -49 -1zM252 328h204l-102 260zM545 826c-33 -44 -70 -66 -111 -66c-17 0 -40 6 -67 17s-47 17 -60 17c-31 0 -58 -16 -82 -48l-24 27c40 55 85 83 136 83
c12 0 34 -7 66 -20c33 -13 55 -19 68 -19c15 0 30 10 47 30z" />
    <glyph glyph-name="Ccedilla" unicode="&#xc7;" horiz-adv-x="678" 
d="M390 -5l-20 -30c43 -10 74 -20 93 -31c25 -14 38 -33 38 -56c0 -26 -13 -50 -38 -73s-53 -34 -84 -34c-38 0 -65 9 -82 28l41 46c20 -13 43 -20 69 -20c33 0 49 10 49 30c0 17 -14 31 -42 41c-17 7 -47 14 -90 21v42c11 13 22 26 33 40c-93 13 -167 49 -221 107
c-54 59 -81 135 -81 229c0 106 31 190 94 253c67 66 159 99 277 99c37 0 75 -3 113 -8c41 -6 62 -9 65 -9c9 0 20 0 33 1c-1 -35 -2 -61 -2 -80s1 -44 2 -75h-38c3 77 -53 115 -168 115c-185 0 -277 -92 -277 -276c0 -95 26 -169 79 -224s122 -82 207 -82c56 0 95 7 117 21
c25 15 37 43 37 84h38c-1 -27 -2 -50 -2 -69s1 -42 2 -69c-13 -1 -39 -5 -80 -12c-40 -7 -79 -11 -116 -11c-11 0 -26 1 -46 2z" />
    <glyph glyph-name="Eacute" unicode="&#xc9;" horiz-adv-x="594" 
d="M408 876l-201 -152l-26 28l174 176zM551 0l-385 2c-18 0 -41 0 -68 -1s-45 -1 -54 -1v38c23 0 40 2 49 6c17 8 26 24 26 49v497c0 25 -9 42 -27 49c-11 4 -30 6 -58 6v38c9 0 28 0 59 -1s55 -1 73 -1c15 0 41 0 78 1c38 1 70 1 97 1c79 0 139 1 178 2
c-1 -27 -2 -50 -2 -69s1 -42 2 -70h-36c0 39 -10 63 -30 73c-17 8 -57 12 -122 12c-43 0 -84 -1 -124 -2v-251h101c55 0 89 3 102 9c16 8 24 29 24 62h38c0 -16 -2 -65 -2 -102c0 -36 2 -85 2 -102h-39c0 39 -8 64 -24 73c-13 9 -47 13 -101 13h-101v-210
c0 -33 9 -54 28 -62c13 -5 48 -8 105 -8c68 0 111 4 130 13c29 13 43 43 43 90h38c-1 -33 -2 -58 -2 -77s1 -44 2 -77z" />
    <glyph glyph-name="Ecircumflex" unicode="&#xca;" horiz-adv-x="594" 
d="M551 0l-385 2c-18 0 -41 0 -68 -1s-45 -1 -54 -1v38c23 0 40 2 49 6c17 8 26 24 26 49v497c0 25 -9 42 -27 49c-11 4 -30 6 -58 6v38c9 0 28 0 59 -1s55 -1 73 -1c15 0 41 0 78 1c38 1 70 1 97 1c79 0 139 1 178 2c-1 -27 -2 -50 -2 -69s1 -42 2 -70h-36
c0 39 -10 63 -30 73c-17 8 -57 12 -122 12c-43 0 -84 -1 -124 -2v-251h101c55 0 89 3 102 9c16 8 24 29 24 62h38c0 -16 -2 -65 -2 -102c0 -36 2 -85 2 -102h-39c0 39 -8 64 -24 73c-13 9 -47 13 -101 13h-101v-210c0 -33 9 -54 28 -62c13 -5 48 -8 105 -8
c68 0 111 4 130 13c29 13 43 43 43 90h38c-1 -33 -2 -58 -2 -77s1 -44 2 -77zM478 752l-30 -30l-140 117h-21l-140 -117l-30 30l147 145h68z" />
    <glyph glyph-name="Edieresis" unicode="&#xcb;" horiz-adv-x="594" 
d="M551 0l-385 2c-18 0 -41 0 -68 -1s-45 -1 -54 -1v38c23 0 40 2 49 6c17 8 26 24 26 49v497c0 25 -9 42 -27 49c-11 4 -30 6 -58 6v38c9 0 28 0 59 -1s55 -1 73 -1c15 0 41 0 78 1c38 1 70 1 97 1c79 0 139 1 178 2c-1 -27 -2 -50 -2 -69s1 -42 2 -70h-36
c0 39 -10 63 -30 73c-17 8 -57 12 -122 12c-43 0 -84 -1 -124 -2v-251h101c55 0 89 3 102 9c16 8 24 29 24 62h38c0 -16 -2 -65 -2 -102c0 -36 2 -85 2 -102h-39c0 39 -8 64 -24 73c-13 9 -47 13 -101 13h-101v-210c0 -33 9 -54 28 -62c13 -5 48 -8 105 -8
c68 0 111 4 130 13c29 13 43 43 43 90h38c-1 -33 -2 -58 -2 -77s1 -44 2 -77zM447 819c0 -33 -26 -51 -51 -51c-35 0 -52 17 -52 51c0 35 17 52 52 52c34 0 51 -17 51 -52zM251 819c0 -33 -26 -51 -51 -51c-35 0 -52 17 -52 51c0 35 17 52 52 52c34 0 51 -17 51 -52z" />
    <glyph glyph-name="Egrave" unicode="&#xc8;" horiz-adv-x="594" 
d="M551 0l-385 2c-18 0 -41 0 -68 -1s-45 -1 -54 -1v38c23 0 40 2 49 6c17 8 26 24 26 49v497c0 25 -9 42 -27 49c-11 4 -30 6 -58 6v38c9 0 28 0 59 -1s55 -1 73 -1c15 0 41 0 78 1c38 1 70 1 97 1c79 0 139 1 178 2c-1 -27 -2 -50 -2 -69s1 -42 2 -70h-36
c0 39 -10 63 -30 73c-17 8 -57 12 -122 12c-43 0 -84 -1 -124 -2v-251h101c55 0 89 3 102 9c16 8 24 29 24 62h38c0 -16 -2 -65 -2 -102c0 -36 2 -85 2 -102h-39c0 39 -8 64 -24 73c-13 9 -47 13 -101 13h-101v-210c0 -33 9 -54 28 -62c13 -5 48 -8 105 -8
c68 0 111 4 130 13c29 13 43 43 43 90h38c-1 -33 -2 -58 -2 -77s1 -44 2 -77zM381 752l-26 -28l-201 152l53 52z" />
    <glyph glyph-name="Iacute" unicode="&#xcd;" horiz-adv-x="331" 
d="M282 0c-8 0 -25 0 -52 1c-26 1 -48 1 -67 1c-18 0 -40 0 -67 -1c-26 -1 -43 -1 -52 -1v38c23 0 40 2 49 6c17 8 26 24 26 49v497c0 25 -9 41 -26 49c-9 4 -26 6 -49 6v38c9 0 26 0 52 -1c27 -1 49 -1 67 -1c19 0 41 0 67 1c27 1 44 1 52 1v-38c-23 0 -40 -2 -49 -6
c-17 -8 -26 -24 -26 -49v-497c0 -25 9 -41 26 -49c9 -4 26 -6 49 -6v-38zM320 876l-201 -152l-26 28l174 176z" />
    <glyph glyph-name="Icircumflex" unicode="&#xce;" horiz-adv-x="331" 
d="M282 0c-8 0 -25 0 -52 1c-26 1 -48 1 -67 1c-18 0 -40 0 -67 -1c-26 -1 -43 -1 -52 -1v38c23 0 40 2 49 6c17 8 26 24 26 49v497c0 25 -9 41 -26 49c-9 4 -26 6 -49 6v38c9 0 26 0 52 -1c27 -1 49 -1 67 -1c19 0 41 0 67 1c27 1 44 1 52 1v-38c-23 0 -40 -2 -49 -6
c-17 -8 -26 -24 -26 -49v-497c0 -25 9 -41 26 -49c9 -4 26 -6 49 -6v-38zM344 752l-30 -30l-140 117h-21l-140 -117l-30 30l147 145h68z" />
    <glyph glyph-name="Idieresis" unicode="&#xcf;" horiz-adv-x="331" 
d="M282 0c-8 0 -25 0 -52 1c-26 1 -48 1 -67 1c-18 0 -40 0 -67 -1c-26 -1 -43 -1 -52 -1v38c23 0 40 2 49 6c17 8 26 24 26 49v497c0 25 -9 41 -26 49c-9 4 -26 6 -49 6v38c9 0 26 0 52 -1c27 -1 49 -1 67 -1c19 0 41 0 67 1c27 1 44 1 52 1v-38c-23 0 -40 -2 -49 -6
c-17 -8 -26 -24 -26 -49v-497c0 -25 9 -41 26 -49c9 -4 26 -6 49 -6v-38zM313 819c0 -33 -26 -51 -51 -51c-35 0 -52 17 -52 51c0 35 17 52 52 52c34 0 51 -17 51 -52zM117 819c0 -33 -26 -51 -51 -51c-35 0 -52 17 -52 51c0 35 17 52 52 52c34 0 51 -17 51 -52z" />
    <glyph glyph-name="Igrave" unicode="&#xcc;" horiz-adv-x="331" 
d="M282 0c-8 0 -25 0 -52 1c-26 1 -48 1 -67 1c-18 0 -40 0 -67 -1c-26 -1 -43 -1 -52 -1v38c23 0 40 2 49 6c17 8 26 24 26 49v497c0 25 -9 41 -26 49c-9 4 -26 6 -49 6v38c9 0 26 0 52 -1c27 -1 49 -1 67 -1c19 0 41 0 67 1c27 1 44 1 52 1v-38c-23 0 -40 -2 -49 -6
c-17 -8 -26 -24 -26 -49v-497c0 -25 9 -41 26 -49c9 -4 26 -6 49 -6v-38zM233 752l-26 -28l-201 152l53 52z" />
    <glyph glyph-name="Ntilde" unicode="&#xd1;" horiz-adv-x="799" 
d="M569 826c-33 -44 -70 -66 -111 -66c-17 0 -40 6 -67 17s-47 17 -60 17c-31 0 -58 -16 -82 -48l-24 27c40 55 85 83 136 83c12 0 34 -7 66 -20c33 -13 55 -19 68 -19c15 0 30 10 47 30zM748 645c-49 0 -74 -23 -74 -69v-576h-51l-444 565v-458c0 -46 30 -69 90 -69v-38
c-40 1 -79 2 -117 2c-18 0 -38 0 -61 -1c-22 -1 -37 -1 -46 -1v38c49 0 74 23 74 69v455c0 35 -7 59 -22 70c-11 9 -32 13 -64 13v38c29 -1 58 -1 89 -1s60 0 89 1l403 -527v420c0 46 -30 69 -90 69v38c40 -1 79 -2 117 -2c19 0 39 0 61 1c23 1 38 1 46 1v-38z" />
    <glyph glyph-name="Oacute" unicode="&#xd3;" horiz-adv-x="851" 
d="M444 701c107 0 190 -35 251 -105c56 -65 84 -149 84 -254c0 -98 -31 -181 -92 -249c-66 -73 -153 -110 -260 -110c-105 0 -188 31 -250 94c-61 63 -92 148 -92 253c0 109 33 198 98 267c66 69 153 104 261 104zM439 650c-77 0 -138 -28 -183 -85
c-45 -56 -67 -129 -67 -220c0 -83 16 -151 48 -205c42 -71 109 -106 200 -106c71 0 127 24 170 73c46 53 69 127 69 223c0 93 -17 168 -52 223c-41 65 -102 97 -185 97zM546 876l-201 -152l-26 28l174 176z" />
    <glyph glyph-name="Ocircumflex" unicode="&#xd4;" horiz-adv-x="851" 
d="M444 701c107 0 190 -35 251 -105c56 -65 84 -149 84 -254c0 -98 -31 -181 -92 -249c-66 -73 -153 -110 -260 -110c-105 0 -188 31 -250 94c-61 63 -92 148 -92 253c0 109 33 198 98 267c66 69 153 104 261 104zM439 650c-77 0 -138 -28 -183 -85
c-45 -56 -67 -129 -67 -220c0 -83 16 -151 48 -205c42 -71 109 -106 200 -106c71 0 127 24 170 73c46 53 69 127 69 223c0 93 -17 168 -52 223c-41 65 -102 97 -185 97zM613 752l-30 -30l-140 117h-21l-140 -117l-30 30l147 145h68z" />
    <glyph glyph-name="Odieresis" unicode="&#xd6;" horiz-adv-x="851" 
d="M444 701c107 0 190 -35 251 -105c56 -65 84 -149 84 -254c0 -98 -31 -181 -92 -249c-66 -73 -153 -110 -260 -110c-105 0 -188 31 -250 94c-61 63 -92 148 -92 253c0 109 33 198 98 267c66 69 153 104 261 104zM439 650c-77 0 -138 -28 -183 -85
c-45 -56 -67 -129 -67 -220c0 -83 16 -151 48 -205c42 -71 109 -106 200 -106c71 0 127 24 170 73c46 53 69 127 69 223c0 93 -17 168 -52 223c-41 65 -102 97 -185 97zM577 819c0 -33 -26 -51 -51 -51c-35 0 -52 17 -52 51c0 35 17 52 52 52c34 0 51 -17 51 -52zM381 819
c0 -33 -26 -51 -51 -51c-35 0 -52 17 -52 51c0 35 17 52 52 52c34 0 51 -17 51 -52z" />
    <glyph glyph-name="Ograve" unicode="&#xd2;" horiz-adv-x="851" 
d="M444 701c107 0 190 -35 251 -105c56 -65 84 -149 84 -254c0 -98 -31 -181 -92 -249c-66 -73 -153 -110 -260 -110c-105 0 -188 31 -250 94c-61 63 -92 148 -92 253c0 109 33 198 98 267c66 69 153 104 261 104zM439 650c-77 0 -138 -28 -183 -85
c-45 -56 -67 -129 -67 -220c0 -83 16 -151 48 -205c42 -71 109 -106 200 -106c71 0 127 24 170 73c46 53 69 127 69 223c0 93 -17 168 -52 223c-41 65 -102 97 -185 97zM546 752l-26 -28l-201 152l53 52z" />
    <glyph glyph-name="Otilde" unicode="&#xd5;" horiz-adv-x="851" 
d="M606 826c-33 -44 -70 -66 -111 -66c-17 0 -40 6 -67 17s-47 17 -60 17c-31 0 -58 -16 -82 -48l-24 27c40 55 85 83 136 83c12 0 34 -7 66 -20c33 -13 55 -19 68 -19c15 0 30 10 47 30zM444 701c107 0 190 -35 251 -105c56 -65 84 -149 84 -254c0 -98 -31 -181 -92 -249
c-66 -73 -153 -110 -260 -110c-105 0 -188 31 -250 94c-61 63 -92 148 -92 253c0 109 33 198 98 267c66 69 153 104 261 104zM439 650c-77 0 -138 -28 -183 -85c-45 -56 -67 -129 -67 -220c0 -83 16 -151 48 -205c42 -71 109 -106 200 -106c71 0 127 24 170 73
c46 53 69 127 69 223c0 93 -17 168 -52 223c-41 65 -102 97 -185 97z" />
    <glyph glyph-name="Scaron" unicode="&#x160;" horiz-adv-x="545" 
d="M302 805l129 53l27 -29l-156 -83h-46l-156 83l27 29l129 -53h46zM496 206c0 -63 -23 -114 -68 -153s-104 -58 -179 -58c-39 0 -75 5 -110 16s-56 17 -63 17h-21c1 34 2 60 2 79s-1 45 -2 79h38c0 -93 54 -140 163 -140c43 0 78 9 105 28c32 22 48 54 48 97s-18 76 -55 99
c-8 5 -48 22 -119 49c-58 23 -99 44 -123 64c-37 31 -55 73 -55 124c0 59 24 104 72 136c41 28 92 42 153 42c32 0 63 -4 94 -11s51 -11 60 -11h19c-1 -35 -2 -61 -2 -80s1 -44 2 -76h-38c0 85 -46 127 -137 127c-40 0 -72 -7 -95 -20c-31 -17 -46 -45 -46 -84
c0 -38 17 -68 51 -90c15 -10 52 -27 113 -50c65 -25 108 -46 131 -63c41 -31 62 -71 62 -121z" />
    <glyph glyph-name="Uacute" unicode="&#xda;" horiz-adv-x="799" 
d="M758 645c-49 0 -74 -22 -74 -66v-347c0 -87 -29 -152 -87 -195c-51 -37 -119 -55 -205 -55c-83 0 -149 17 -197 50c-56 38 -84 96 -84 173v385c0 25 -9 41 -26 49c-9 4 -26 6 -49 6v38c9 0 26 0 52 -1c27 -1 49 -1 67 -1c19 0 41 0 67 1c27 1 44 1 52 1v-38
c-23 0 -40 -2 -49 -6c-17 -8 -26 -24 -26 -49v-350c0 -127 71 -191 214 -191c141 0 211 64 211 191v339c0 44 -27 66 -80 66v38c40 -1 76 -2 107 -2c19 0 39 0 61 1c23 1 38 1 46 1v-38zM525 876l-201 -152l-26 28l174 176z" />
    <glyph glyph-name="Ucircumflex" unicode="&#xdb;" horiz-adv-x="799" 
d="M758 645c-49 0 -74 -22 -74 -66v-347c0 -87 -29 -152 -87 -195c-51 -37 -119 -55 -205 -55c-83 0 -149 17 -197 50c-56 38 -84 96 -84 173v385c0 25 -9 41 -26 49c-9 4 -26 6 -49 6v38c9 0 26 0 52 -1c27 -1 49 -1 67 -1c19 0 41 0 67 1c27 1 44 1 52 1v-38
c-23 0 -40 -2 -49 -6c-17 -8 -26 -24 -26 -49v-350c0 -127 71 -191 214 -191c141 0 211 64 211 191v339c0 44 -27 66 -80 66v38c40 -1 76 -2 107 -2c19 0 39 0 61 1c23 1 38 1 46 1v-38zM592 752l-30 -30l-140 117h-21l-140 -117l-30 30l147 145h68z" />
    <glyph glyph-name="Udieresis" unicode="&#xdc;" horiz-adv-x="799" 
d="M758 645c-49 0 -74 -22 -74 -66v-347c0 -87 -29 -152 -87 -195c-51 -37 -119 -55 -205 -55c-83 0 -149 17 -197 50c-56 38 -84 96 -84 173v385c0 25 -9 41 -26 49c-9 4 -26 6 -49 6v38c9 0 26 0 52 -1c27 -1 49 -1 67 -1c19 0 41 0 67 1c27 1 44 1 52 1v-38
c-23 0 -40 -2 -49 -6c-17 -8 -26 -24 -26 -49v-350c0 -127 71 -191 214 -191c141 0 211 64 211 191v339c0 44 -27 66 -80 66v38c40 -1 76 -2 107 -2c19 0 39 0 61 1c23 1 38 1 46 1v-38zM558 819c0 -33 -26 -51 -51 -51c-35 0 -52 17 -52 51c0 35 17 52 52 52
c34 0 51 -17 51 -52zM362 819c0 -33 -26 -51 -51 -51c-35 0 -52 17 -52 51c0 35 17 52 52 52c34 0 51 -17 51 -52z" />
    <glyph glyph-name="Ugrave" unicode="&#xd9;" horiz-adv-x="799" 
d="M758 645c-49 0 -74 -22 -74 -66v-347c0 -87 -29 -152 -87 -195c-51 -37 -119 -55 -205 -55c-83 0 -149 17 -197 50c-56 38 -84 96 -84 173v385c0 25 -9 41 -26 49c-9 4 -26 6 -49 6v38c9 0 26 0 52 -1c27 -1 49 -1 67 -1c19 0 41 0 67 1c27 1 44 1 52 1v-38
c-23 0 -40 -2 -49 -6c-17 -8 -26 -24 -26 -49v-350c0 -127 71 -191 214 -191c141 0 211 64 211 191v339c0 44 -27 66 -80 66v38c40 -1 76 -2 107 -2c19 0 39 0 61 1c23 1 38 1 46 1v-38zM525 752l-26 -28l-201 152l53 52z" />
    <glyph glyph-name="Yacute" unicode="&#xdd;" horiz-adv-x="681" 
d="M486 876l-201 -152l-26 28l174 176zM690 647c-29 0 -54 -8 -75 -24c-13 -9 -29 -26 -48 -51l-183 -234v-245c0 -25 10 -42 30 -49c10 -4 30 -6 59 -6v-38c-8 0 -28 0 -59 1s-55 1 -74 1c-18 0 -43 0 -74 -1s-50 -1 -59 -1v38c29 0 49 2 60 6c19 7 29 24 29 49v216
l-193 258c-22 29 -38 47 -48 56c-18 15 -40 22 -67 22v38c9 0 26 0 52 -1c27 -1 49 -1 67 -1c19 0 42 0 70 1c29 1 47 1 55 1v-38c-31 0 -47 -8 -47 -25c0 -9 5 -21 15 -34l153 -205l145 184c13 17 20 31 20 42c0 25 -21 38 -62 38v38c9 0 26 0 51 -1c26 -1 48 -1 66 -1
c19 0 41 0 66 1c26 1 43 1 51 1v-36z" />
    <glyph glyph-name="Ydieresis" unicode="&#x178;" horiz-adv-x="681" 
d="M690 647c-29 0 -54 -8 -75 -24c-13 -9 -29 -26 -48 -51l-183 -234v-245c0 -25 10 -42 30 -49c10 -4 30 -6 59 -6v-38c-8 0 -28 0 -59 1s-55 1 -74 1c-18 0 -43 0 -74 -1s-50 -1 -59 -1v38c29 0 49 2 60 6c19 7 29 24 29 49v216l-193 258c-22 29 -38 47 -48 56
c-18 15 -40 22 -67 22v38c9 0 26 0 52 -1c27 -1 49 -1 67 -1c19 0 42 0 70 1c29 1 47 1 55 1v-38c-31 0 -47 -8 -47 -25c0 -9 5 -21 15 -34l153 -205l145 184c13 17 20 31 20 42c0 25 -21 38 -62 38v38c9 0 26 0 51 -1c26 -1 48 -1 66 -1c19 0 41 0 66 1c26 1 43 1 51 1v-36
zM493 819c0 -33 -26 -51 -51 -51c-35 0 -52 17 -52 51c0 35 17 52 52 52c34 0 51 -17 51 -52zM297 819c0 -33 -26 -51 -51 -51c-35 0 -52 17 -52 51c0 35 17 52 52 52c34 0 51 -17 51 -52z" />
    <glyph glyph-name="Zcaron" unicode="&#x17d;" horiz-adv-x="654" 
d="M348 805l129 53l27 -29l-156 -83h-46l-156 83l27 29l129 -53h46zM610 0c-65 0 -159 0 -282 1c-122 1 -188 1 -199 1c-3 0 -32 -1 -85 -2v38l414 588h-244c-57 0 -92 -5 -105 -15c-13 -9 -20 -37 -20 -82h-38c1 33 2 58 2 77s-1 45 -2 78l446 -2c30 0 58 0 85 1v-38
l-415 -588h277c54 0 89 6 104 19c16 13 24 40 24 82h38c-1 -34 -2 -60 -2 -79s1 -45 2 -79z" />
    <glyph glyph-name="aacute" unicode="&#xe1;" horiz-adv-x="443" 
d="M437 40l-77 -48c-8 2 -16 6 -24 11c-19 12 -37 30 -53 55c-39 -44 -82 -66 -130 -66c-68 0 -123 45 -123 110c0 60 33 101 100 124c41 14 87 22 139 25v64c0 35 -11 61 -33 79c-18 14 -41 21 -68 21c-43 0 -79 -19 -110 -57l-23 20c9 25 27 47 56 66c33 22 69 33 110 33
c65 0 108 -22 131 -66c11 -21 16 -45 16 -74l-2 -207c0 -23 10 -42 29 -58c11 -9 32 -19 62 -32zM269 217c-57 -7 -96 -15 -118 -24c-31 -13 -46 -34 -46 -63c0 -24 9 -43 26 -58c15 -14 35 -21 58 -21c35 0 61 13 79 39zM328 686l-201 -152l-26 28l174 176z" />
    <glyph glyph-name="acircumflex" unicode="&#xe2;" horiz-adv-x="443" 
d="M437 40l-77 -48c-8 2 -16 6 -24 11c-19 12 -37 30 -53 55c-39 -44 -82 -66 -130 -66c-68 0 -123 45 -123 110c0 60 33 101 100 124c41 14 87 22 139 25v64c0 35 -11 61 -33 79c-18 14 -41 21 -68 21c-43 0 -79 -19 -110 -57l-23 20c9 25 27 47 56 66c33 22 69 33 110 33
c65 0 108 -22 131 -66c11 -21 16 -45 16 -74l-2 -207c0 -23 10 -42 29 -58c11 -9 32 -19 62 -32zM269 217c-57 -7 -96 -15 -118 -24c-31 -13 -46 -34 -46 -63c0 -24 9 -43 26 -58c15 -14 35 -21 58 -21c35 0 61 13 79 39zM383 582l-30 -30l-140 117h-21l-140 -117l-30 30
l147 145h68z" />
    <glyph glyph-name="adieresis" unicode="&#xe4;" horiz-adv-x="443" 
d="M437 40l-77 -48c-8 2 -16 6 -24 11c-19 12 -37 30 -53 55c-39 -44 -82 -66 -130 -66c-68 0 -123 45 -123 110c0 60 33 101 100 124c41 14 87 22 139 25v64c0 35 -11 61 -33 79c-18 14 -41 21 -68 21c-43 0 -79 -19 -110 -57l-23 20c9 25 27 47 56 66c33 22 69 33 110 33
c65 0 108 -22 131 -66c11 -21 16 -45 16 -74l-2 -207c0 -23 10 -42 29 -58c11 -9 32 -19 62 -32zM269 217c-57 -7 -96 -15 -118 -24c-31 -13 -46 -34 -46 -63c0 -24 9 -43 26 -58c15 -14 35 -21 58 -21c35 0 61 13 79 39zM342 629c0 -33 -26 -51 -51 -51
c-35 0 -52 17 -52 51c0 35 17 52 52 52c34 0 51 -17 51 -52zM146 629c0 -33 -26 -51 -51 -51c-35 0 -52 17 -52 51c0 35 17 52 52 52c34 0 51 -17 51 -52z" />
    <glyph glyph-name="agrave" unicode="&#xe0;" horiz-adv-x="443" 
d="M437 40l-77 -48c-8 2 -16 6 -24 11c-19 12 -37 30 -53 55c-39 -44 -82 -66 -130 -66c-68 0 -123 45 -123 110c0 60 33 101 100 124c41 14 87 22 139 25v64c0 35 -11 61 -33 79c-18 14 -41 21 -68 21c-43 0 -79 -19 -110 -57l-23 20c9 25 27 47 56 66c33 22 69 33 110 33
c65 0 108 -22 131 -66c11 -21 16 -45 16 -74l-2 -207c0 -23 10 -42 29 -58c11 -9 32 -19 62 -32zM269 217c-57 -7 -96 -15 -118 -24c-31 -13 -46 -34 -46 -63c0 -24 9 -43 26 -58c15 -14 35 -21 58 -21c35 0 61 13 79 39zM303 562l-26 -28l-201 152l53 52z" />
    <glyph glyph-name="aring" unicode="&#xe5;" horiz-adv-x="443" 
d="M437 40l-77 -48c-8 2 -16 6 -24 11c-19 12 -37 30 -53 55c-39 -44 -82 -66 -130 -66c-68 0 -123 45 -123 110c0 60 33 101 100 124c41 14 87 22 139 25v64c0 35 -11 61 -33 79c-18 14 -41 21 -68 21c-43 0 -79 -19 -110 -57l-23 20c9 25 27 47 56 66c33 22 69 33 110 33
c65 0 108 -22 131 -66c11 -21 16 -45 16 -74l-2 -207c0 -23 10 -42 29 -58c11 -9 32 -19 62 -32zM269 217c-57 -7 -96 -15 -118 -24c-31 -13 -46 -34 -46 -63c0 -24 9 -43 26 -58c15 -14 35 -21 58 -21c35 0 61 13 79 39zM307 641c0 -26 -11 -48 -32 -65s-44 -25 -68 -25
c-22 0 -42 5 -61 16c-29 15 -44 40 -44 75c0 29 11 53 32 71c19 16 42 24 70 24c27 0 49 -7 68 -21c23 -17 35 -42 35 -75zM264 643c0 33 -28 58 -60 58c-39 0 -59 -19 -59 -56c0 -35 27 -59 60 -59c39 0 59 19 59 57z" />
    <glyph glyph-name="atilde" unicode="&#xe3;" horiz-adv-x="443" 
d="M437 40l-77 -48c-8 2 -16 6 -24 11c-19 12 -37 30 -53 55c-39 -44 -82 -66 -130 -66c-68 0 -123 45 -123 110c0 60 33 101 100 124c41 14 87 22 139 25v64c0 35 -11 61 -33 79c-18 14 -41 21 -68 21c-43 0 -79 -19 -110 -57l-23 20c9 25 27 47 56 66c33 22 69 33 110 33
c65 0 108 -22 131 -66c11 -21 16 -45 16 -74l-2 -207c0 -23 10 -42 29 -58c11 -9 32 -19 62 -32zM269 217c-57 -7 -96 -15 -118 -24c-31 -13 -46 -34 -46 -63c0 -24 9 -43 26 -58c15 -14 35 -21 58 -21c35 0 61 13 79 39zM381 636c-33 -44 -70 -66 -111 -66
c-17 0 -40 6 -67 17s-47 17 -60 17c-31 0 -58 -16 -82 -48l-24 27c40 55 85 83 136 83c12 0 34 -7 66 -20c33 -13 55 -19 68 -19c15 0 30 10 47 30z" />
    <glyph glyph-name="ccedilla" unicode="&#xe7;" horiz-adv-x="434" 
d="M258 -8l-24 -28c42 -9 72 -19 91 -30c24 -14 36 -33 36 -56c0 -26 -13 -50 -38 -73s-53 -34 -84 -34c-38 0 -65 9 -82 28l41 46c20 -13 43 -20 69 -20c33 0 49 10 49 30c0 17 -14 31 -42 41c-17 7 -47 14 -90 21v42l34 33c-51 6 -93 30 -126 71c-35 44 -52 101 -52 171
c0 75 26 135 77 182c45 41 97 61 155 61c63 0 113 -21 150 -64l-57 -56c-34 24 -52 37 -55 38c-26 15 -53 22 -80 22c-31 0 -56 -13 -75 -39c-21 -29 -31 -69 -31 -120c0 -63 15 -112 46 -149c29 -34 65 -51 110 -51c47 0 87 17 120 51l23 -31c-14 -21 -36 -40 -65 -56
c-32 -17 -65 -27 -100 -30z" />
    <glyph glyph-name="eacute" unicode="&#xe9;" horiz-adv-x="470" 
d="M440 248l-313 1c0 -70 18 -121 54 -153c26 -23 60 -35 101 -35c55 0 98 17 128 51l23 -31c-11 -18 -29 -35 -54 -52c-39 -25 -84 -38 -134 -38c-65 0 -116 24 -153 71c-34 43 -51 101 -51 172c0 72 20 130 59 175s90 68 153 68c58 0 104 -20 137 -60
c33 -39 50 -90 50 -151v-18zM352 290c0 35 -8 66 -25 92c-20 31 -48 46 -85 46c-34 0 -62 -15 -83 -44c-19 -26 -30 -57 -31 -94h224zM395 686l-201 -152l-26 28l174 176z" />
    <glyph glyph-name="ecircumflex" unicode="&#xea;" horiz-adv-x="470" 
d="M440 248l-313 1c0 -70 18 -121 54 -153c26 -23 60 -35 101 -35c55 0 98 17 128 51l23 -31c-11 -18 -29 -35 -54 -52c-39 -25 -84 -38 -134 -38c-65 0 -116 24 -153 71c-34 43 -51 101 -51 172c0 72 20 130 59 175s90 68 153 68c58 0 104 -20 137 -60
c33 -39 50 -90 50 -151v-18zM352 290c0 35 -8 66 -25 92c-20 31 -48 46 -85 46c-34 0 -62 -15 -83 -44c-19 -26 -30 -57 -31 -94h224zM420 562l-30 -30l-140 117h-21l-140 -117l-30 30l147 145h68z" />
    <glyph glyph-name="edieresis" unicode="&#xeb;" horiz-adv-x="470" 
d="M440 248l-313 1c0 -70 18 -121 54 -153c26 -23 60 -35 101 -35c55 0 98 17 128 51l23 -31c-11 -18 -29 -35 -54 -52c-39 -25 -84 -38 -134 -38c-65 0 -116 24 -153 71c-34 43 -51 101 -51 172c0 72 20 130 59 175s90 68 153 68c58 0 104 -20 137 -60
c33 -39 50 -90 50 -151v-18zM352 290c0 35 -8 66 -25 92c-20 31 -48 46 -85 46c-34 0 -62 -15 -83 -44c-19 -26 -30 -57 -31 -94h224zM392 629c0 -33 -26 -51 -51 -51c-35 0 -52 17 -52 51c0 35 17 52 52 52c34 0 51 -17 51 -52zM196 629c0 -33 -26 -51 -51 -51
c-35 0 -52 17 -52 51c0 35 17 52 52 52c34 0 51 -17 51 -52z" />
    <glyph glyph-name="egrave" unicode="&#xe8;" horiz-adv-x="470" 
d="M440 248l-313 1c0 -70 18 -121 54 -153c26 -23 60 -35 101 -35c55 0 98 17 128 51l23 -31c-11 -18 -29 -35 -54 -52c-39 -25 -84 -38 -134 -38c-65 0 -116 24 -153 71c-34 43 -51 101 -51 172c0 72 20 130 59 175s90 68 153 68c58 0 104 -20 137 -60
c33 -39 50 -90 50 -151v-18zM352 290c0 35 -8 66 -25 92c-20 31 -48 46 -85 46c-34 0 -62 -15 -83 -44c-19 -26 -30 -57 -31 -94h224zM317 562l-26 -28l-201 152l53 52z" />
    <glyph glyph-name="iacute" unicode="&#xed;" horiz-adv-x="293" 
d="M34 0v38c25 0 42 3 53 10c15 9 22 27 22 54v288c-30 7 -58 14 -85 22v38c40 2 85 11 134 27h35v-375c0 -27 8 -45 24 -54c10 -7 27 -10 51 -10v-38c-8 0 -25 0 -51 1c-25 1 -47 1 -66 1s-41 0 -68 -1s-43 -1 -49 -1zM251 686l-201 -152l-26 28l174 176z" />
    <glyph glyph-name="icircumflex" unicode="&#xee;" horiz-adv-x="293" 
d="M34 0v38c25 0 42 3 53 10c15 9 22 27 22 54v288c-30 7 -58 14 -85 22v38c40 2 85 11 134 27h35v-375c0 -27 8 -45 24 -54c10 -7 27 -10 51 -10v-38c-8 0 -25 0 -51 1c-25 1 -47 1 -66 1s-41 0 -68 -1s-43 -1 -49 -1zM318 562l-30 -30l-140 117h-21l-140 -117l-30 30
l147 145h68z" />
    <glyph glyph-name="idieresis" unicode="&#xef;" horiz-adv-x="293" 
d="M301 629c0 -33 -26 -51 -51 -51c-35 0 -52 17 -52 51c0 35 17 52 52 52c34 0 51 -17 51 -52zM105 629c0 -33 -26 -51 -51 -51c-35 0 -52 17 -52 51c0 35 17 52 52 52c34 0 51 -17 51 -52zM34 0v38c25 0 42 3 53 10c15 9 22 27 22 54v288c-30 7 -58 14 -85 22v38
c40 2 85 11 134 27h35v-375c0 -27 8 -45 24 -54c10 -7 27 -10 51 -10v-38c-8 0 -25 0 -51 1c-25 1 -47 1 -66 1s-41 0 -68 -1s-43 -1 -49 -1z" />
    <glyph glyph-name="igrave" unicode="&#xec;" horiz-adv-x="293" 
d="M34 0v38c25 0 42 3 53 10c15 9 22 27 22 54v288c-30 7 -58 14 -85 22v38c40 2 85 11 134 27h35v-375c0 -27 8 -45 24 -54c10 -7 27 -10 51 -10v-38c-8 0 -25 0 -51 1c-25 1 -47 1 -66 1s-41 0 -68 -1s-43 -1 -49 -1zM219 562l-26 -28l-201 152l53 52z" />
    <glyph glyph-name="ntilde" unicode="&#xf1;" horiz-adv-x="600" 
d="M34 0v38c25 0 42 3 53 10c15 9 22 27 22 54v288c-30 7 -58 14 -85 22v38c40 2 85 11 134 27h33v-72c40 48 93 72 160 72c35 0 65 -9 92 -27c39 -27 58 -68 58 -124v-224c0 -27 8 -45 24 -54c10 -7 27 -10 51 -10v-38c-8 0 -25 0 -51 1c-25 1 -47 1 -66 1s-41 0 -68 -1
s-43 -1 -49 -1v38c25 0 42 3 53 10c15 9 22 27 22 54v206c0 63 -45 102 -113 102c-24 0 -47 -5 -70 -16c-20 -9 -34 -19 -41 -30v-262c0 -27 8 -45 24 -54c10 -7 27 -10 51 -10v-38c-8 0 -25 0 -51 1c-25 1 -47 1 -66 1s-41 0 -68 -1s-43 -1 -49 -1zM477 636
c-33 -44 -70 -66 -111 -66c-17 0 -40 6 -67 17s-47 17 -60 17c-31 0 -58 -16 -82 -48l-24 27c40 55 85 83 136 83c12 0 34 -7 66 -20c33 -13 55 -19 68 -19c15 0 30 10 47 30z" />
    <glyph glyph-name="oacute" unicode="&#xf3;" horiz-adv-x="565" 
d="M285 477c147 0 232 -95 232 -240c0 -75 -24 -135 -72 -181c-45 -43 -101 -65 -167 -65c-70 0 -126 21 -167 62c-43 43 -65 102 -65 177c0 72 25 132 74 179c47 45 102 68 165 68zM283 429c-51 0 -88 -22 -113 -65c-19 -34 -29 -77 -29 -129c0 -55 10 -99 31 -133
c25 -42 62 -63 112 -63c51 0 88 22 112 65c18 33 27 77 27 132c0 51 -10 93 -29 128c-24 43 -61 65 -111 65zM395 686l-201 -152l-26 28l174 176z" />
    <glyph glyph-name="ocircumflex" unicode="&#xf4;" horiz-adv-x="565" 
d="M285 477c147 0 232 -95 232 -240c0 -75 -24 -135 -72 -181c-45 -43 -101 -65 -167 -65c-70 0 -126 21 -167 62c-43 43 -65 102 -65 177c0 72 25 132 74 179c47 45 102 68 165 68zM283 429c-51 0 -88 -22 -113 -65c-19 -34 -29 -77 -29 -129c0 -55 10 -99 31 -133
c25 -42 62 -63 112 -63c51 0 88 22 112 65c18 33 27 77 27 132c0 51 -10 93 -29 128c-24 43 -61 65 -111 65zM462 562l-30 -30l-140 117h-21l-140 -117l-30 30l147 145h68z" />
    <glyph glyph-name="odieresis" unicode="&#xf6;" horiz-adv-x="565" 
d="M285 477c147 0 232 -95 232 -240c0 -75 -24 -135 -72 -181c-45 -43 -101 -65 -167 -65c-70 0 -126 21 -167 62c-43 43 -65 102 -65 177c0 72 25 132 74 179c47 45 102 68 165 68zM283 429c-51 0 -88 -22 -113 -65c-19 -34 -29 -77 -29 -129c0 -55 10 -99 31 -133
c25 -42 62 -63 112 -63c51 0 88 22 112 65c18 33 27 77 27 132c0 51 -10 93 -29 128c-24 43 -61 65 -111 65zM436 629c0 -33 -26 -51 -51 -51c-35 0 -52 17 -52 51c0 35 17 52 52 52c34 0 51 -17 51 -52zM240 629c0 -33 -26 -51 -51 -51c-35 0 -52 17 -52 51
c0 35 17 52 52 52c34 0 51 -17 51 -52z" />
    <glyph glyph-name="ograve" unicode="&#xf2;" horiz-adv-x="565" 
d="M285 477c147 0 232 -95 232 -240c0 -75 -24 -135 -72 -181c-45 -43 -101 -65 -167 -65c-70 0 -126 21 -167 62c-43 43 -65 102 -65 177c0 72 25 132 74 179c47 45 102 68 165 68zM283 429c-51 0 -88 -22 -113 -65c-19 -34 -29 -77 -29 -129c0 -55 10 -99 31 -133
c25 -42 62 -63 112 -63c51 0 88 22 112 65c18 33 27 77 27 132c0 51 -10 93 -29 128c-24 43 -61 65 -111 65zM395 562l-26 -28l-201 152l53 52z" />
    <glyph glyph-name="otilde" unicode="&#xf5;" horiz-adv-x="565" 
d="M285 477c147 0 232 -95 232 -240c0 -75 -24 -135 -72 -181c-45 -43 -101 -65 -167 -65c-70 0 -126 21 -167 62c-43 43 -65 102 -65 177c0 72 25 132 74 179c47 45 102 68 165 68zM283 429c-51 0 -88 -22 -113 -65c-19 -34 -29 -77 -29 -129c0 -55 10 -99 31 -133
c25 -42 62 -63 112 -63c51 0 88 22 112 65c18 33 27 77 27 132c0 51 -10 93 -29 128c-24 43 -61 65 -111 65zM454 636c-33 -44 -70 -66 -111 -66c-17 0 -40 6 -67 17s-47 17 -60 17c-31 0 -58 -16 -82 -48l-24 27c40 55 85 83 136 83c12 0 34 -7 66 -20
c33 -13 55 -19 68 -19c15 0 30 10 47 30z" />
    <glyph glyph-name="scaron" unicode="&#x161;" horiz-adv-x="409" 
d="M47 14c1 25 2 46 2 65s-1 41 -2 66h38c0 -73 39 -109 117 -109c63 0 94 25 94 76c0 32 -22 57 -65 75l-120 45c-43 23 -65 57 -65 103c0 48 19 85 57 111c31 21 67 31 108 31c45 0 103 -16 135 -16c-1 -23 -2 -44 -2 -63s1 -40 2 -63h-38c0 65 -33 97 -98 97
c-60 0 -90 -24 -90 -72c0 -27 22 -49 67 -67l123 -48c45 -24 67 -57 67 -100c0 -47 -19 -85 -57 -114c-35 -27 -77 -40 -125 -40c-27 0 -55 4 -84 11c-29 8 -50 12 -64 12zM31 677l30 30l140 -117h21l140 117l30 -30l-147 -145h-68z" />
    <glyph glyph-name="uacute" unicode="&#xfa;" horiz-adv-x="584" 
d="M14 412v38c50 3 93 12 129 27h35v-308c0 -75 36 -113 108 -113c45 0 82 15 113 46v288c-30 7 -58 14 -85 22v38c40 2 85 11 134 27h35v-401c16 -2 44 -8 85 -18v-38c-25 -1 -67 -11 -125 -30h-35v69c-39 -45 -94 -68 -165 -68c-89 0 -149 60 -149 167v232
c-17 4 -43 11 -80 22zM405 686l-201 -152l-26 28l174 176z" />
    <glyph glyph-name="ucircumflex" unicode="&#xfb;" horiz-adv-x="584" 
d="M14 412v38c50 3 93 12 129 27h35v-308c0 -75 36 -113 108 -113c45 0 82 15 113 46v288c-30 7 -58 14 -85 22v38c40 2 85 11 134 27h35v-401c16 -2 44 -8 85 -18v-38c-25 -1 -67 -11 -125 -30h-35v69c-39 -45 -94 -68 -165 -68c-89 0 -149 60 -149 167v232
c-17 4 -43 11 -80 22zM469 562l-30 -30l-140 117h-21l-140 -117l-30 30l147 145h68z" />
    <glyph glyph-name="udieresis" unicode="&#xfc;" horiz-adv-x="584" 
d="M14 412v38c50 3 93 12 129 27h35v-308c0 -75 36 -113 108 -113c45 0 82 15 113 46v288c-30 7 -58 14 -85 22v38c40 2 85 11 134 27h35v-401c16 -2 44 -8 85 -18v-38c-25 -1 -67 -11 -125 -30h-35v69c-39 -45 -94 -68 -165 -68c-89 0 -149 60 -149 167v232
c-17 4 -43 11 -80 22zM438 629c0 -33 -26 -51 -51 -51c-35 0 -52 17 -52 51c0 35 17 52 52 52c34 0 51 -17 51 -52zM242 629c0 -33 -26 -51 -51 -51c-35 0 -52 17 -52 51c0 35 17 52 52 52c34 0 51 -17 51 -52z" />
    <glyph glyph-name="ugrave" unicode="&#xf9;" horiz-adv-x="584" 
d="M14 412v38c50 3 93 12 129 27h35v-308c0 -75 36 -113 108 -113c45 0 82 15 113 46v288c-30 7 -58 14 -85 22v38c40 2 85 11 134 27h35v-401c16 -2 44 -8 85 -18v-38c-25 -1 -67 -11 -125 -30h-35v69c-39 -45 -94 -68 -165 -68c-89 0 -149 60 -149 167v232
c-17 4 -43 11 -80 22zM389 562l-26 -28l-201 152l53 52z" />
    <glyph glyph-name="yacute" unicode="&#xfd;" horiz-adv-x="537" 
d="M7 420v38c10 -1 49 -1 117 -2c19 0 41 0 67 1c27 1 43 1 50 1v-38c-47 0 -71 -11 -71 -34c0 -6 2 -13 5 -21l113 -272l98 252c5 12 7 22 7 30c0 30 -20 45 -60 45v38c17 0 62 -2 98 -2c37 0 82 2 98 2v-38c-41 1 -71 -24 -92 -76l-159 -400c-21 -53 -45 -96 -71 -128
c-29 -35 -63 -53 -102 -53c-37 0 -69 11 -95 33l43 61c21 -13 43 -21 66 -22c45 -3 72 20 109 104l27 61h-21l-160 386c-9 23 -32 34 -67 34zM424 686l-201 -152l-26 28l174 176z" />
    <glyph glyph-name="ydieresis" unicode="&#xff;" horiz-adv-x="537" 
d="M408 629c0 -33 -26 -51 -51 -51c-35 0 -52 17 -52 51c0 35 17 52 52 52c34 0 51 -17 51 -52zM212 629c0 -33 -26 -51 -51 -51c-35 0 -52 17 -52 51c0 35 17 52 52 52c34 0 51 -17 51 -52zM7 420v38c10 -1 49 -1 117 -2c19 0 41 0 67 1c27 1 43 1 50 1v-38
c-47 0 -71 -11 -71 -34c0 -6 2 -13 5 -21l113 -272l98 252c5 12 7 22 7 30c0 30 -20 45 -60 45v38c17 0 62 -2 98 -2c37 0 82 2 98 2v-38c-41 1 -71 -24 -92 -76l-159 -400c-21 -53 -45 -96 -71 -128c-29 -35 -63 -53 -102 -53c-37 0 -69 11 -95 33l43 61
c21 -13 43 -21 66 -22c45 -3 72 20 109 104l27 61h-21l-160 386c-9 23 -32 34 -67 34z" />
    <glyph glyph-name="zcaron" unicode="&#x17e;" horiz-adv-x="478" 
d="M24 -1v46l287 366h-164c-50 0 -75 -25 -75 -76c0 -6 0 -11 1 -16h-38c1 28 2 51 2 70s-1 42 -2 71c27 -3 128 -4 303 -4c21 0 50 0 85 1v-39l-296 -368h202c56 0 81 33 75 100h38c-1 -31 -2 -56 -2 -75s0 -44 1 -75c-43 0 -96 0 -161 1s-113 1 -144 1
c-21 0 -59 -1 -112 -3zM57 677l30 30l140 -117h21l140 117l30 -30l-147 -145h-68z" />
    <glyph glyph-name="NULL" unicode="&#xe001;" horiz-adv-x="0" 
 />
    <glyph glyph-name="CR" unicode="&#xe000;" horiz-adv-x="200" 
 />
    <glyph glyph-name="mu1" unicode="&#xe006;" horiz-adv-x="584" 
 />
    <glyph glyph-name="overscore" unicode="&#xe008;" horiz-adv-x="540" 
d="M133 674h283v-60h-283v60z" />
    <glyph glyph-name="increment" unicode="&#xe004;" horiz-adv-x="612" 
d="M326 688l282 -688h-602zM290 517l-218 -468h412z" />
    <glyph glyph-name="Omega" unicode="&#x2126;" horiz-adv-x="768" 
d="M313 152l16 -152h-295v162h15c12 -49 25 -61 66 -61h158l-2 28c-77 23 -133 59 -167 108c-33 49 -50 103 -50 161c0 49 11 94 34 135c24 43 62 80 114 111c50 29 111 44 183 44s133 -15 183 -44c25 -15 42 -26 52 -34c24 -20 45 -46 62 -77c23 -41 34 -86 34 -135
c0 -58 -17 -112 -51 -161c-33 -49 -89 -85 -166 -108l-2 -28h158c41 0 54 12 66 61h15v-162h-295l16 152c29 13 48 22 56 29c49 36 86 114 86 221c0 89 -23 156 -69 202c-35 35 -83 52 -145 52s-110 -17 -145 -52c-46 -46 -69 -113 -69 -202c0 -107 37 -185 86 -221
c8 -7 27 -16 56 -29z" />
    <glyph glyph-name="pi" unicode="&#x3c0;" horiz-adv-x="549" 
d="M335 401h-113c-13 -153 -29 -270 -46 -351c-10 -46 -32 -69 -65 -69c-24 0 -47 19 -52 39c-1 5 -2 10 -2 15c0 12 8 29 25 51c9 12 19 24 29 35c12 17 19 34 21 51l29 229h-47c-29 0 -51 -11 -66 -32l-21 -31h-17c5 13 9 25 13 38c9 21 19 41 32 59c25 35 56 52 94 52
h373v-86h-126c-8 -78 -12 -156 -12 -235c0 -33 8 -58 25 -73c12 -11 25 -17 40 -17c23 0 48 18 55 46c2 9 4 19 5 29h21c-1 -41 -10 -76 -27 -105c-25 -45 -60 -62 -93 -62c-14 0 -26 4 -36 11c-21 15 -38 40 -49 74c-13 38 -15 95 -7 171z" />
    <glyph glyph-name="partialdiff" unicode="&#x2202;" horiz-adv-x="494" 
d="M104 667l-39 50c44 19 88 29 131 29c93 0 165 -47 218 -140c32 -57 48 -128 48 -213c0 -31 -4 -69 -11 -114c-10 -61 -24 -111 -41 -148c-16 -34 -30 -59 -41 -74c-16 -22 -37 -40 -63 -54c-29 -16 -59 -24 -91 -24c-39 0 -73 11 -104 32c-51 35 -79 83 -84 145
c-5 65 13 124 55 175c40 49 87 73 142 71c31 -1 57 -7 80 -19c14 -7 37 -24 70 -49c6 33 10 72 11 116c1 52 -9 105 -32 159c-8 19 -20 37 -37 53c-23 22 -48 34 -75 36c-12 1 -22 1 -31 1c-19 0 -36 -3 -51 -8c-19 -8 -37 -16 -55 -24zM366 299c-23 25 -36 38 -39 41
c-20 16 -43 24 -69 23c-38 -1 -70 -19 -96 -54c-33 -45 -50 -99 -50 -161c0 -63 15 -105 46 -125c15 -9 29 -14 44 -14c12 0 25 3 39 9c64 28 106 122 125 281z" />
    <glyph glyph-name="product" unicode="&#x220f;" horiz-adv-x="823" 
d="M706 629v-626c0 -33 9 -55 26 -67c14 -9 38 -14 71 -14v-23h-306v23c33 0 56 5 70 14c17 12 26 34 26 67v693h-358v-693c0 -33 9 -55 26 -67c14 -9 38 -14 71 -14v-23h-307v23c33 0 57 5 71 14c17 12 26 34 26 67v626c0 66 -32 99 -95 99v23h773v-23
c-63 0 -94 -33 -94 -99z" />
    <glyph glyph-name="summation" unicode="&#x2211;" horiz-adv-x="713" 
d="M695 116c-13 -55 -22 -92 -26 -112c-5 -26 -11 -63 -17 -112c-47 7 -73 11 -77 11h-503c-13 0 -45 -3 -58 -3l349 398l-347 454c79 -5 114 -7 104 -7h497l6 -159h-20c-13 43 -25 70 -36 81c-21 22 -60 33 -117 33h-263l273 -358l-294 -339h371c38 0 66 8 84 23
c16 14 33 44 51 90h23z" />
    <glyph glyph-name="middot" unicode="&#xe005;" horiz-adv-x="228" 
d="M111 196c-21 0 -36 7 -46 20c-9 11 -13 23 -13 38c0 29 21 56 61 56s60 -19 60 -57c0 -32 -23 -57 -62 -57z" />
    <glyph glyph-name="radical" unicode="&#x221a;" horiz-adv-x="549" 
d="M26 417l-16 33l146 72l197 -403l127 798l35 -5l-150 -950l-243 502z" />
    <glyph glyph-name="infinity" unicode="&#x221e;" horiz-adv-x="713" 
d="M357 297c53 48 96 79 129 94c20 9 40 13 61 13c36 0 68 -12 95 -37c27 -24 43 -53 46 -88c4 -39 -8 -75 -36 -108c-30 -35 -67 -50 -111 -46c-43 4 -84 20 -122 49c-21 19 -41 38 -62 57c-21 -19 -41 -38 -62 -57c-38 -29 -79 -45 -122 -49c-44 -4 -81 11 -111 46
c-28 33 -40 69 -36 108c3 35 19 64 46 88c27 25 59 37 95 37c21 0 41 -4 61 -13c33 -15 76 -46 129 -94zM324 264c-53 45 -93 72 -119 81c-13 5 -26 7 -39 7c-28 0 -51 -11 -68 -33c-15 -19 -23 -39 -22 -60c1 -49 45 -87 94 -87c7 0 15 1 22 3c26 6 48 15 65 28
c11 8 33 28 67 61zM390 264c34 -33 56 -53 67 -61c17 -13 39 -22 65 -28c7 -2 15 -3 22 -3c49 0 93 38 94 87c1 21 -7 41 -22 60c-17 22 -40 33 -68 33c-13 0 -26 -2 -39 -7c-26 -9 -66 -36 -119 -81z" />
    <glyph glyph-name="integral" unicode="&#x222b;" horiz-adv-x="274" 
d="M190 488l-1 -216c-1 -118 -12 -216 -34 -293c-7 -26 -17 -46 -29 -61c-4 -5 -12 -10 -24 -15c-14 -7 -27 -10 -40 -10c-9 0 -17 2 -24 5c-15 7 -26 20 -33 39c-2 5 -3 11 -3 16c0 17 9 30 27 39c6 3 12 5 17 5c11 0 25 -8 40 -25c5 -5 9 -8 14 -8c9 0 16 12 21 36
c4 21 6 46 5 74c-4 134 -6 239 -6 314v144c0 79 1 131 2 156c3 60 11 111 24 154c9 30 24 52 45 65c9 6 20 9 32 9c33 0 68 -20 68 -56c0 -9 -3 -18 -9 -25c-11 -13 -25 -19 -42 -19c-21 0 -40 24 -51 24s-17 -7 -18 -22c7 -65 13 -175 19 -330z" />
    <glyph glyph-name="approxequal" unicode="&#x2248;" horiz-adv-x="549" 
d="M158 320c-41 0 -73 -15 -96 -46l-24 27c43 59 89 89 140 89c17 0 55 -7 115 -22c49 -12 82 -18 99 -18c41 0 73 15 96 46l24 -27c-43 -59 -89 -89 -140 -89c-17 0 -55 7 -115 22c-49 12 -82 18 -99 18zM158 124c-41 0 -73 -15 -96 -46l-24 27c43 59 89 89 140 89
c17 0 55 -7 115 -22c49 -12 82 -18 99 -18c41 0 73 15 96 46l24 -27c-43 -59 -89 -89 -140 -89c-17 0 -55 7 -115 22c-49 12 -82 18 -99 18z" />
    <glyph glyph-name="notequal" unicode="&#x2260;" horiz-adv-x="549" 
d="M321 303l-43 -130h234v-66h-256l-47 -140h-50l47 140h-168v66h190l43 130h-233v66h255l47 139h50l-46 -139h168v-66h-191z" />
    <glyph glyph-name="lessequal" unicode="&#x2264;" horiz-adv-x="549" 
d="M512 606v-66l-397 -171l397 -171v-66l-474 204v66zM38 -1v66h474v-66h-474z" />
    <glyph glyph-name="greaterequal" unicode="&#x2265;" horiz-adv-x="549" 
d="M38 -1v66h474v-66h-474zM38 132v66l397 171l-397 171v66l474 -204v-66z" />
    <glyph glyph-name="lozenge" unicode="&#x25ca;" horiz-adv-x="494" 
d="M49 383l165 383h66l165 -383l-165 -383h-66zM379 383l-132 306l-132 -306l132 -306z" />
    <glyph glyph-name="_246" unicode="&#xe002;" horiz-adv-x="200" 
 />
    <glyph glyph-name="apple" unicode="&#xe003;" horiz-adv-x="804" 
d="M672 272c0 -79 -22 -146 -67 -203c-41 -52 -86 -78 -136 -78c-39 0 -52 17 -60 17c-7 0 -23 -17 -68 -17c-41 0 -82 20 -124 60c-58 55 -87 131 -87 228c0 109 45 164 135 164c59 0 96 -26 104 -26c13 0 19 11 19 33c0 7 -1 19 -3 36c-1 17 -2 30 -2 38
c-1 70 17 119 54 146c12 9 32 17 60 24c31 8 52 15 61 20c19 11 28 26 28 46h3c7 -19 11 -44 11 -74c0 -21 -2 -41 -7 -60c-7 -31 -27 -55 -59 -73c-27 -11 -55 -23 -83 -35c-27 -12 -41 -27 -41 -45c0 -39 10 -59 29 -59c1 0 10 5 28 14c18 10 44 15 78 15
c53 0 89 -18 108 -55c13 -25 19 -63 19 -116zM582 709c-8 -19 -22 -37 -42 -53c-20 -13 -40 -27 -60 -40c-38 -26 -65 -61 -80 -104c15 29 33 52 52 67l60 39c44 32 67 62 70 91zM312 137c-17 35 -25 65 -25 89c0 14 4 30 11 49s11 35 11 46c0 27 -10 41 -30 41
c-35 0 -52 -21 -52 -62c0 -37 28 -91 85 -163z" />
    <glyph glyph-name="nbspace" unicode="&#xe007;" 
 />
    </font>
</defs>
</svg>
