<?xml version="1.0" standalone="no"?>
<!DOCTYPE svg PUBLIC "-//W3C//DTD SVG 1.1//EN" "http://www.w3.org/Graphics/SVG/1.1/DTD/svg11.dtd" >
<svg xmlns="http://www.w3.org/2000/svg" xmlns:xlink="http://www.w3.org/1999/xlink" version="1.1">
<metadata>
Created by FontForge 20190801 at Fri Nov  4 22:00:46 2005
 By Jimmy Wärting
version 1.04/created on 16-11-1994/Copr.Dutch Type Library / URW
</metadata>
<defs>
<font id="DTLDocumentaST-Medium" horiz-adv-x="549" >
  <font-face 
    font-family="DTLDocumentaST Medium"
    font-weight="500"
    font-stretch="normal"
    units-per-em="1000"
    panose-1="2 0 6 4 2 0 0 2 0 3"
    ascent="766"
    descent="-234"
    x-height="472"
    cap-height="683"
    bbox="-47 -241 1172 938"
    underline-thickness="20"
    underline-position="-133"
    stemh="48"
    stemv="48"
    unicode-range="U+0020-FB02"
  />
<missing-glyph horiz-adv-x="500" 
 />
    <glyph glyph-name=".notdef" horiz-adv-x="500" 
 />
    <glyph glyph-name="Eth" unicode="&#xd0;" horiz-adv-x="835" 
d="M779 367c0 -218 -139 -371 -391 -371c-68 0 -143 4 -204 5c-50 0 -114 -1 -136 -1v48c45 0 79 5 79 69v195h-128v60h128v194c0 69 -44 69 -89 69v48c22 0 96 -1 146 -1s97 2 187 2c113 0 210 -20 280 -66c81 -50 128 -133 128 -251zM653 353c0 194 -129 271 -298 271
c-78 0 -96 -5 -117 -8v-244h141v-60h-141v-176c0 -80 86 -81 161 -81c148 0 254 88 254 298z" />
    <glyph glyph-name="eth" unicode="&#xf0;" horiz-adv-x="605" 
d="M574 610l-110 -25c41 -58 66 -143 66 -257c0 -205 -78 -338 -259 -338c-168 0 -228 124 -228 245c0 165 96 253 238 253c68 0 106 -23 109 -26c0 6 -5 67 -34 98l-171 -39l-13 54l139 32c-28 20 -68 32 -117 32c-66 0 -115 -18 -129 -23l-12 52c15 7 77 29 152 29
c86 0 158 -18 216 -65l141 32zM409 255c0 86 -12 179 -115 179c-82 0 -130 -47 -130 -191c0 -117 29 -198 118 -198c106 0 127 95 127 210z" />
    <glyph glyph-name="Lslash" unicode="&#x141;" horiz-adv-x="574" 
d="M559 0c-140 1 -313 1 -374 1c-50 0 -114 -1 -136 -1v48c45 0 79 5 79 69v177l-118 -49l-26 60l144 61v200c0 69 -39 69 -85 69v48c23 0 91 -2 141 -2s104 2 139 2v-48c-45 0 -84 0 -84 -69v-152l140 59l26 -60l-166 -71v-203c0 -72 27 -79 142 -79c105 0 131 25 131 107
h47s-2 -53 -2 -83s2 -84 2 -84z" />
    <glyph glyph-name="lslash" unicode="&#x142;" horiz-adv-x="341" 
d="M356 418l-130 -85v-221c0 -60 33 -64 71 -64v-48c-30 0 -75 2 -125 2s-97 -2 -124 -2v48c40 0 71 4 71 64v150l-90 -60l-33 50l123 82v325c-36 7 -54 14 -84 24v44c42 5 111 24 145 39h46v-361l96 64z" />
    <glyph glyph-name="Scaron" unicode="&#x160;" horiz-adv-x="545" 
d="M488 843l-166 -97h-49l-166 97l29 34l137 -62h49l138 62zM522 209c0 -131 -113 -214 -263 -214c-100 0 -139 31 -176 31h-30s2 56 2 86s-2 85 -2 85h48c0 -100 64 -144 162 -144c77 0 150 28 150 118c0 88 -91 107 -180 142c-89 36 -175 80 -175 192c0 64 32 113 83 144
c41 24 94 37 154 37c84 0 117 -20 157 -20h28s-2 -52 -2 -82s2 -79 2 -79h-47c0 45 -19 123 -137 123c-40 0 -70 -6 -92 -19c-28 -16 -41 -41 -41 -75c0 -82 86 -105 170 -139c102 -41 189 -72 189 -186z" />
    <glyph glyph-name="scaron" unicode="&#x161;" horiz-adv-x="437" 
d="M418 680l-152 -153h-82l-152 153l36 35l143 -112h33l140 111zM403 156c0 -113 -107 -163 -199 -163c-76 0 -110 22 -156 22c0 0 2 38 2 68s-2 68 -2 68h48c0 -34 -1 -105 114 -105c62 0 92 29 92 70c0 109 -255 57 -255 222c0 101 85 152 182 152c71 0 96 -18 143 -18
c0 0 -2 -35 -2 -65s2 -64 2 -64h-47c0 44 -15 93 -97 93c-55 0 -87 -19 -87 -64c0 -99 262 -62 262 -216z" />
    <glyph glyph-name="Yacute" unicode="&#xdd;" horiz-adv-x="711" 
d="M490 874l-203 -150l-36 37l176 177zM715 636c-60 0 -89 -34 -124 -77l-181 -224v-218c0 -69 41 -69 91 -69v-48c-30 0 -96 1 -146 1s-117 -1 -147 -1v48c50 0 91 0 91 69v184l-200 263c-37 49 -62 71 -104 71v48c30 0 86 -2 136 -2s110 2 140 2v-48
c-61 0 -68 -26 -35 -70l138 -180l137 169c10 12 17 26 18 38c0 23 -16 43 -63 43v48c30 0 74 -2 124 -2s95 2 125 2v-47z" />
    <glyph glyph-name="yacute" unicode="&#xfd;" horiz-adv-x="552" 
d="M415 695l-203 -151l-35 37l176 177zM547 425c-36 1 -63 -13 -87 -76l-148 -377c-24 -58 -50 -110 -78 -147c-29 -38 -68 -60 -117 -60c-39 0 -76 9 -102 35l43 72c22 -14 47 -22 78 -23c41 -1 65 21 101 105c2 5 17 40 20 46h-30l-155 388c-12 32 -37 37 -69 37v47
c30 -2 77 -2 127 -2c50 -1 95 2 125 2v-47c-64 0 -69 -32 -58 -58l102 -257l93 243c2 5 5 16 5 28c0 23 -15 44 -57 44v47c30 0 54 -2 104 -2s73 2 103 2v-47z" />
    <glyph glyph-name="Thorn" unicode="&#xde;" horiz-adv-x="646" 
d="M577 362c0 -137 -104 -222 -242 -222c-31 0 -55 2 -82 10v53s27 -12 80 -12c80 0 128 60 128 155c0 101 -55 150 -156 150c-38 0 -55 -2 -73 -5v-374c0 -69 41 -69 91 -69v-48c-22 0 -92 1 -142 1s-117 -1 -139 -1v48c45 0 79 5 79 69v449c0 64 -34 69 -79 69v48
c22 0 85 -2 135 -2s111 2 134 2v-48c-44 0 -77 -4 -79 -63v-22c26 1 55 3 101 3c155 0 244 -67 244 -191z" />
    <glyph glyph-name="thorn" unicode="&#xfe;" horiz-adv-x="606" 
d="M565 257c0 -174 -130 -266 -254 -266c-70 0 -99 19 -99 19v-132c0 -60 40 -64 80 -64v-48c-30 0 -82 2 -132 2s-100 -2 -127 -2v48c41 0 71 4 71 64v781c-36 7 -54 14 -84 24v44c42 5 112 24 146 39h46v-347c17 24 66 72 151 72c118 0 202 -91 202 -234zM448 226
c0 132 -69 181 -138 181c-65 0 -95 -37 -98 -41v-282s35 -36 99 -36c76 0 137 49 137 178z" />
    <glyph glyph-name="Zcaron" unicode="&#x17d;" horiz-adv-x="668" 
d="M527 838l-166 -97h-49l-167 97l29 34l138 -62h49l137 62zM633 0c-168 0 -437 2 -496 2c-46 0 -55 -1 -95 -2v38l400 582h-230c-106 0 -119 -12 -119 -103h-48s2 53 2 83s-2 85 -2 85c157 -3 455 -3 455 -3s55 0 95 1v-38l-402 -582h264c110 0 128 27 128 110h48
s-2 -56 -2 -86s2 -87 2 -87z" />
    <glyph glyph-name="zcaron" unicode="&#x17e;" horiz-adv-x="494" 
d="M440 680l-153 -153h-81l-153 153l37 35l143 -112h33l140 111zM462 0c-61 0 -238 2 -338 2c-34 0 -99 -2 -99 -2v51l280 364h-148c-90 0 -78 -71 -78 -91h-48s2 39 2 74s-2 75 -2 75c20 -2 235 -2 316 -2c34 0 88 1 88 1v-48l-284 -364h184c90 0 80 79 80 99h47
s-1 -44 -1 -79c0 -36 1 -80 1 -80z" />
    <glyph glyph-name="onehalf" unicode="&#xbd;" horiz-adv-x="1065" 
d="M290 679c-40 0 -74 -13 -74 -56v-234c0 -43 34 -56 73 -56v-34c-30 0 -69 2 -119 2s-89 -2 -119 -2v35c39 0 73 12 73 55v234c0 43 -34 55 -73 55v35c30 0 70 -2 120 -2s89 2 119 2v-34zM731 739l-470 -847l-61 35l470 846zM987 0h-378v33s86 60 143 105
c49 38 85 71 85 126c0 58 -44 79 -88 79c-52 0 -81 -25 -81 -56c0 -33 17 -41 17 -41l-34 -21c-15 8 -32 39 -32 75c0 47 41 124 161 124c123 0 162 -69 162 -124c0 -64 -52 -110 -99 -148c-43 -35 -99 -73 -99 -73h243v-79z" />
    <glyph glyph-name="onequarter" unicode="&#xbc;" horiz-adv-x="1065" 
d="M290 679c-40 0 -74 -13 -74 -56v-234c0 -43 34 -56 73 -56v-34c-30 0 -69 2 -119 2s-89 -2 -119 -2v35c39 0 73 12 73 55v234c0 43 -34 55 -73 55v35c30 0 70 -2 120 -2s89 2 119 2v-34zM735 739l-469 -847l-61 35l469 846zM1025 123h-133v-33c0 -43 33 -56 73 -56v-35
c-30 0 -70 2 -120 2s-89 -2 -119 -2v36c40 0 73 12 74 55v33h-249v52l275 254h66v-233h133v-73zM800 196v146l-158 -146h158z" />
    <glyph glyph-name="onesuperior" unicode="&#xb9;" horiz-adv-x="354" 
d="M295 679c-40 0 -74 -13 -74 -56v-234c0 -43 34 -56 73 -56v-34c-30 0 -69 2 -119 2s-90 -2 -120 -2v35c40 0 74 12 74 55v234c0 43 -34 55 -73 55v35c30 0 70 -2 120 -2s89 2 119 2v-34z" />
    <glyph glyph-name="threequarters" unicode="&#xbe;" horiz-adv-x="1065" 
d="M392 412c0 -36 -20 -66 -47 -84c-36 -26 -84 -38 -154 -38c-111 0 -154 65 -168 94l26 35c22 -44 74 -77 136 -77c58 0 99 19 99 61c0 50 -79 68 -158 74v40c54 8 121 29 121 80c0 46 -53 55 -83 55c-31 0 -70 -12 -70 -44c0 -25 15 -35 15 -35l-34 -21
c-12 6 -30 30 -30 70c0 42 43 101 149 101c105 0 158 -40 158 -99c0 -56 -80 -89 -104 -96c43 -5 144 -31 144 -116zM770 739l-469 -847l-61 35l469 846zM1025 123h-133v-33c0 -43 33 -56 73 -56v-35c-30 0 -70 2 -120 2s-89 -2 -119 -2v36c40 0 73 12 74 55v33h-249v52
l275 254h66v-233h133v-73zM800 196v146l-158 -146h158z" />
    <glyph glyph-name="threesuperior" unicode="&#xb3;" horiz-adv-x="618" 
d="M409 412c0 -36 -20 -66 -46 -84c-37 -26 -85 -38 -155 -38c-111 0 -154 65 -168 94l26 35c22 -44 74 -77 136 -77c58 0 99 19 99 61c0 50 -79 68 -158 74v40c54 8 121 29 121 80c0 46 -53 55 -83 55c-31 0 -70 -12 -70 -44c0 -25 15 -35 15 -35l-34 -21
c-12 6 -30 30 -30 70c0 42 43 101 149 101c105 0 158 -40 158 -99c0 -56 -80 -89 -104 -96c43 -5 144 -31 144 -116z" />
    <glyph glyph-name="twosuperior" unicode="&#xb2;" horiz-adv-x="609" 
d="M418 299h-378v32s86 60 143 106c49 38 85 71 85 126c0 58 -44 79 -88 79c-52 0 -81 -25 -81 -56c0 -33 17 -41 17 -41l-34 -21c-15 8 -32 39 -32 75c0 47 41 124 161 124c123 0 162 -69 162 -125c0 -64 -52 -109 -99 -148c-43 -35 -99 -73 -99 -73h243v-78z" />
    <glyph glyph-name="brokenbar" unicode="&#xa6;" horiz-adv-x="304" 
d="M205 366h-104l-1 400h104zM204 -234h-104l1 400h103v-400z" />
    <glyph glyph-name="minus" unicode="&#x2212;" 
d="M512 203h-474v84h474v-84z" />
    <glyph glyph-name="multiply" unicode="&#xd7;" 
d="M486 86l-60 -60l-152 153l-152 -152l-59 58l152 152l-152 153l60 60l152 -153l152 152l59 -58l-153 -152z" />
    <glyph glyph-name="space" unicode=" " horiz-adv-x="200" 
 />
    <glyph glyph-name="exclam" unicode="!" horiz-adv-x="297" 
d="M210 527c0 -129 -34 -294 -34 -326h-55c0 33 -34 203 -34 326c0 129 5 166 63 166c55 0 60 -36 60 -166zM222 59c0 -43 -32 -66 -73 -66c-44 0 -73 25 -73 66s32 66 73 66c36 0 73 -22 73 -66z" />
    <glyph glyph-name="quotedbl" unicode="&#x22;" horiz-adv-x="405" 
d="M350 719c0 -51 -25 -160 -33 -216h-48c-8 55 -33 169 -33 216c0 32 19 47 57 47c42 0 57 -17 57 -47zM170 719c0 -51 -25 -160 -34 -216h-48c-8 55 -33 169 -33 216c0 32 20 47 58 47c42 0 57 -17 57 -47z" />
    <glyph glyph-name="numbersign" unicode="#" horiz-adv-x="747" 
d="M696 491l-6 -55h-170l-22 -206h170l-6 -56h-170l-17 -165h-57l17 165h-167l-17 -165h-57l17 165h-170l7 56h169l22 206h-169l5 55h169l19 175h57l-19 -175h167l18 175h58l-19 -175h171zM463 436h-168l-21 -206h167z" />
    <glyph glyph-name="dollar" unicode="$" horiz-adv-x="611" 
d="M540 203c0 -156 -133 -206 -207 -208v-89h-65v89c-20 0 -70 0 -124 31l-14 -36h-46s2 66 2 96s-2 107 -2 107h47c0 -126 89 -149 137 -148v261c-68 32 -197 66 -197 196c0 142 125 179 197 181v83h65v-83c55 -2 102 -23 109 -26l13 34h47s-2 -62 -2 -92s2 -91 2 -91h-47
c0 40 -9 118 -122 124v-228c70 -37 207 -56 207 -201zM268 424v208c-62 1 -106 -31 -106 -93c0 -74 75 -100 106 -115zM450 158c0 81 -66 106 -117 127v-240c57 0 117 38 117 113z" />
    <glyph glyph-name="percent" horiz-adv-x="795" 
d="M396 580c0 -102 -83 -176 -186 -176c-106 0 -172 68 -172 171c0 95 78 172 183 172c108 0 175 -64 175 -167zM673 744l-489 -849l-57 33l488 850zM757 103c0 -102 -84 -176 -186 -176c-106 0 -172 68 -172 171c0 95 78 172 183 172c107 0 175 -63 175 -167zM308 573
c0 73 -25 132 -89 132c-77 0 -94 -76 -94 -129c0 -82 36 -128 92 -128c74 0 91 65 91 125zM669 96c0 73 -25 132 -89 132c-77 0 -94 -76 -94 -129c0 -82 35 -128 92 -128c74 0 91 65 91 125z" />
    <glyph glyph-name="ampersand" unicode="&#x26;" horiz-adv-x="909" 
d="M918 21c-42 -21 -77 -29 -104 -29c-71 0 -201 74 -275 121c-18 -30 -87 -128 -242 -128c-152 0 -242 73 -242 176c0 112 109 170 133 184c-16 11 -119 83 -119 183c0 98 84 173 219 173c123 0 204 -56 204 -140c0 -94 -113 -153 -165 -182c53 -39 185 -125 214 -140
c3 5 31 82 31 104c10 49 -24 58 -67 58v47c30 0 75 -2 125 -2s94 2 124 2v-47c-62 0 -91 -8 -115 -58c-11 -12 -43 -113 -55 -132c43 -25 271 -169 324 -151zM400 542c0 67 -47 106 -117 106c-69 0 -112 -30 -112 -90c0 -71 72 -120 115 -151c64 31 114 72 114 135zM496 138
c-30 16 -212 132 -273 180c-32 -22 -63 -54 -63 -125c0 -76 59 -143 166 -143c92 0 144 43 170 88z" />
    <glyph glyph-name="quotesingle" unicode="'" horiz-adv-x="225" 
d="M170 719c0 -51 -25 -160 -34 -216h-48c-8 55 -33 169 -33 216c0 32 20 47 58 47c42 0 57 -17 57 -47z" />
    <glyph glyph-name="parenleft" unicode="(" horiz-adv-x="409" 
d="M407 -204l-25 -37c-33 13 -146 71 -218 194c-47 79 -80 179 -80 313c0 119 33 234 80 313c72 123 185 181 218 194l25 -37c-47 -29 -102 -60 -157 -167c-48 -87 -61 -223 -61 -304c0 -79 13 -215 61 -303c55 -106 110 -137 157 -166z" />
    <glyph glyph-name="parenright" unicode=")" horiz-adv-x="409" 
d="M324 266c0 -126 -33 -234 -80 -313c-72 -123 -185 -181 -219 -194l-24 37c47 29 102 60 157 166c48 88 61 224 61 303c0 81 -13 217 -61 304c-55 107 -110 138 -157 167l24 37c34 -13 147 -71 219 -194c47 -79 80 -186 80 -313z" />
    <glyph glyph-name="asterisk" unicode="*" horiz-adv-x="530" 
d="M450 500l-44 -77l-123 103l25 -158h-88l27 158l-123 -101l-45 77l151 54l-151 55l45 77l123 -100l-27 157h88l-25 -157l123 102l44 -77l-148 -56z" />
    <glyph glyph-name="plus" unicode="+" 
d="M512 203h-193v-203h-89v203h-192v84h192v203h89v-203h193v-84z" />
    <glyph glyph-name="comma" unicode="," horiz-adv-x="263" 
d="M216 11c0 -102 -98 -166 -150 -176l-32 41c28 8 100 35 108 113c-6 -3 -12 -4 -21 -4c-27 1 -65 19 -65 66c0 40 29 66 72 66c59 0 88 -46 88 -106z" />
    <glyph glyph-name="hyphen" unicode="-" horiz-adv-x="406" 
d="M346 206h-286v94h286v-94z" />
    <glyph glyph-name="period" unicode="." horiz-adv-x="237" 
d="M190 59c0 -40 -30 -66 -73 -66c-46 0 -72 29 -72 67s28 66 73 66c44 0 72 -26 72 -67z" />
    <glyph glyph-name="slash" unicode="/" horiz-adv-x="591" 
d="M591 727l-525 -909l-65 39l524 909z" />
    <glyph glyph-name="zero" unicode="0" horiz-adv-x="632" 
d="M576 252c0 -148 -115 -262 -261 -262c-167 0 -265 104 -265 256c0 137 110 255 270 255c164 0 256 -106 256 -249zM458 250c0 132 -66 189 -142 189c-95 0 -148 -75 -148 -188c0 -108 48 -198 147 -198c104 0 143 89 143 197z" />
    <glyph glyph-name="one" unicode="1" horiz-adv-x="370" 
d="M329 0c-30 0 -89 2 -139 2s-112 -2 -139 -2v48c40 0 85 -1 85 64v241c0 70 -54 60 -115 51l-9 50s89 13 138 22c49 8 136 26 136 26l9 -48c-44 -7 -52 -23 -52 -93v-249c0 -65 55 -64 86 -64v-48z" />
    <glyph glyph-name="two" unicode="2" horiz-adv-x="484" 
d="M468 0h-431v25c75 89 244 192 244 299c0 57 -38 83 -92 83c-60 0 -88 -46 -82 -101l-54 16s-3 10 -3 32c0 61 51 146 168 146c103 0 175 -53 175 -140c0 -110 -160 -210 -207 -262h282v-98z" />
    <glyph glyph-name="three" unicode="3" horiz-adv-x="466" 
d="M427 -4c0 -128 -121 -201 -233 -201c-94 0 -150 44 -178 79l32 48c28 -32 76 -64 140 -64c59 0 125 30 125 116c0 106 -128 136 -179 148v30c68 49 128 101 128 168c0 60 -37 90 -94 90c-59 0 -87 -46 -81 -101l-53 16s-3 9 -3 32c0 64 55 144 167 144
c103 0 177 -57 177 -141c0 -88 -88 -142 -126 -174c41 -13 178 -60 178 -190z" />
    <glyph glyph-name="four" unicode="4" horiz-adv-x="575" 
d="M556 28h-151v-234h-108v234h-321v35l377 437h52v-383h151v-89zM297 117v237l-200 -237h200z" />
    <glyph glyph-name="five" unicode="5" horiz-adv-x="507" 
d="M466 12c0 -154 -137 -218 -253 -218c-66 -1 -115 20 -160 52l33 49c27 -19 77 -39 126 -39c43 0 140 22 140 126c0 97 -102 151 -264 174v335h375v-96h-314v-145c24 -2 160 -19 244 -91c42 -34 73 -81 73 -147z" />
    <glyph glyph-name="six" unicode="6" horiz-adv-x="606" 
d="M531 207c0 -122 -93 -220 -220 -220c-171 0 -259 130 -259 320c0 125 42 223 117 292c78 71 190 103 318 98v-48c-93 0 -162 -23 -219 -74c-59 -51 -91 -130 -94 -203c14 17 57 55 136 55c129 0 221 -82 221 -220zM422 185c0 123 -80 171 -146 171
c-61 0 -94 -28 -104 -43c-1 -7 -2 -19 -2 -37c0 -110 35 -228 142 -228c80 0 110 64 110 137z" />
    <glyph glyph-name="seven" unicode="7" horiz-adv-x="491" 
d="M475 454l-390 -678l-60 29l332 578h-351v108h469v-37z" />
    <glyph glyph-name="eight" unicode="8" horiz-adv-x="580" 
d="M527 181c0 -97 -91 -191 -249 -191c-140 0 -232 61 -232 165c0 97 103 154 153 181c-40 19 -149 82 -149 184c0 120 113 182 230 182c114 0 218 -52 218 -155c0 -81 -68 -128 -147 -175c36 -18 176 -91 176 -191zM399 536c0 73 -64 104 -122 104c-67 0 -117 -32 -117 -92
c0 -78 98 -123 146 -147c50 33 93 65 93 135zM409 143c0 78 -91 125 -163 164c-56 -26 -96 -82 -96 -140c0 -71 54 -118 136 -118c68 0 123 34 123 94z" />
    <glyph glyph-name="nine" unicode="9" horiz-adv-x="606" 
d="M534 181c0 -255 -181 -401 -435 -390v47c91 0 160 22 217 71c60 52 93 132 96 206c-15 -17 -58 -54 -137 -54c-128 0 -220 81 -220 219c0 122 93 220 220 220c170 0 259 -125 259 -319zM416 213c0 109 -37 226 -143 226c-80 0 -110 -64 -110 -137
c0 -123 81 -171 147 -171c60 0 93 29 104 43c0 8 2 21 2 39z" />
    <glyph glyph-name="colon" unicode=":" horiz-adv-x="250" 
d="M198 412c0 -41 -30 -67 -73 -67c-45 0 -71 29 -71 67c0 39 27 66 72 66c44 0 72 -26 72 -66zM198 60c0 -40 -30 -66 -73 -66c-45 0 -71 29 -71 67s27 66 72 66c44 0 72 -26 72 -67z" />
    <glyph glyph-name="semicolon" unicode=";" horiz-adv-x="286" 
d="M209 412c0 -41 -30 -67 -73 -67c-46 0 -72 29 -72 67c0 39 28 66 73 66c44 0 72 -26 72 -66zM226 16c0 -103 -98 -167 -151 -176l-32 40c28 9 101 35 109 113c-7 -2 -13 -3 -22 -3c-27 0 -65 18 -65 65c0 41 30 67 72 67c59 0 89 -46 89 -106z" />
    <glyph glyph-name="less" unicode="&#x3c;" 
d="M512 0l-474 203v84l474 203v-84l-379 -161l379 -161v-84z" />
    <glyph glyph-name="equal" unicode="=" 
d="M512 304h-474v84h474v-84zM512 103h-474v85h474v-85z" />
    <glyph glyph-name="greater" unicode="&#x3e;" 
d="M511 203l-474 -203v84l379 161l-379 161v84l474 -203v-84z" />
    <glyph glyph-name="question" unicode="?" horiz-adv-x="474" 
d="M447 473c0 -127 -82 -169 -165 -189c-70 -16 -132 -20 -132 -50c0 -21 22 -35 30 -40l-39 -27c-28 13 -60 57 -60 115c0 70 86 77 175 96c60 13 121 31 121 98c0 73 -88 118 -190 118c-80 0 -127 -26 -140 -33l2 91c17 12 66 42 143 42c136 0 255 -79 255 -221zM243 59
c0 -43 -32 -66 -72 -66c-44 0 -73 25 -73 66s32 66 72 66c37 0 73 -22 73 -66z" />
    <glyph glyph-name="at" unicode="@" horiz-adv-x="866" 
d="M817 417c0 -193 -148 -270 -264 -270c-59 0 -78 23 -77 64c0 18 7 46 14 71c-33 -68 -96 -135 -173 -135c-40 0 -86 23 -86 105c0 110 71 276 224 276c69 0 107 -28 107 -28c9 6 21 18 28 28h44c-39 -103 -65 -188 -81 -283c-1 -7 -2 -18 -2 -26c0 -18 7 -35 34 -35
c68 0 147 47 147 213c0 180 -108 260 -285 260c-208 0 -310 -176 -310 -345c0 -202 119 -279 249 -279c127 0 187 40 193 43l14 -32c-5 -4 -81 -62 -232 -62c-158 0 -314 100 -314 320c0 150 67 256 163 317c69 54 161 82 256 82c120 0 216 -34 278 -96
c46 -47 73 -109 73 -188zM527 467c0 0 -20 21 -66 21c-111 0 -148 -172 -148 -229c0 -15 -4 -65 36 -65c70 0 136 129 178 273z" />
    <glyph glyph-name="A" unicode="A" horiz-adv-x="793" 
d="M781 0c-30 0 -89 2 -139 2s-109 -2 -139 -2v48c68 1 77 19 48 92l-53 127h-252l-49 -123c-24 -66 0 -96 64 -96v-48c-30 0 -74 2 -124 2s-94 -2 -124 -2v48c60 -1 83 31 108 89l226 546h98l227 -537c33 -75 48 -98 109 -98v-48zM474 321l-104 250l-102 -250h206z" />
    <glyph glyph-name="B" unicode="B" horiz-adv-x="675" 
d="M609 197c0 -121 -104 -199 -269 -199c-106 0 -110 3 -162 3c-50 0 -119 -1 -136 -1v48c45 0 79 5 79 69v449c0 69 -39 69 -90 69v48c23 0 97 -1 147 -1c49 0 95 1 155 1c134 0 217 -59 217 -155c0 -103 -104 -153 -127 -160c15 -4 186 -31 186 -171zM435 507
c0 78 -52 120 -133 120c-52 0 -70 -3 -70 -3v-241c6 -1 30 -2 71 -2c97 0 132 55 132 126zM486 187c0 84 -69 141 -185 141c-42 0 -62 -1 -69 -1v-196c0 -68 52 -79 117 -79c81 0 137 46 137 135z" />
    <glyph glyph-name="C" unicode="C" horiz-adv-x="702" 
d="M650 15c-55 -1 -102 -22 -201 -22c-234 0 -393 119 -393 342c0 214 140 352 383 352c92 0 146 -15 175 -16h35s-2 -54 -2 -84s2 -80 2 -80h-47c1 54 -21 118 -164 118c-184 0 -261 -104 -261 -270c0 -193 115 -300 274 -300c110 0 151 26 151 110h48s-2 -45 -2 -75
s2 -75 2 -75z" />
    <glyph glyph-name="D" unicode="D" horiz-adv-x="829" 
d="M773 367c0 -218 -139 -371 -391 -371c-68 0 -143 4 -204 5c-50 0 -114 -1 -136 -1v48c45 0 79 5 79 69v449c0 69 -44 69 -90 69v48c23 0 97 -1 147 -1s97 2 187 2c113 0 210 -20 280 -66c81 -50 128 -133 128 -251zM647 353c0 194 -129 271 -298 271
c-78 0 -96 -5 -117 -8v-480c0 -80 86 -81 161 -81c148 0 254 88 254 298z" />
    <glyph glyph-name="E" unicode="E" horiz-adv-x="624" 
d="M587 0c-141 1 -348 1 -409 1c-50 0 -114 -1 -136 -1v48c45 0 79 5 79 69v449c0 69 -39 69 -90 69v48c23 0 97 -1 147 -1s115 1 193 1c69 0 124 0 183 2c0 0 -2 -45 -2 -75s2 -75 2 -75h-47c0 79 -30 89 -152 89c-90 0 -108 -3 -123 -3v-239h94c105 0 125 3 125 73h47
c0 -30 -2 -58 -2 -108s2 -77 2 -107h-48c0 81 -21 86 -124 86h-94v-191c0 -66 27 -77 142 -77c121 0 165 7 165 101h48s-2 -49 -2 -79s2 -80 2 -80z" />
    <glyph glyph-name="F" unicode="F" horiz-adv-x="557" 
d="M548 535h-46c0 79 -31 89 -147 89c-90 0 -108 -3 -123 -3v-251h90c105 0 124 3 124 73h47c0 -30 -2 -57 -2 -107s2 -78 2 -108h-48c0 81 -20 86 -123 86h-90v-197c0 -69 41 -69 91 -69v-48c-22 0 -92 1 -142 1s-117 -1 -139 -1v48c45 0 79 5 79 69v449
c0 69 -39 69 -90 69v48c23 0 97 -1 147 -1s109 1 188 1c69 0 123 0 182 2c0 0 -2 -47 -2 -75c0 -29 2 -75 2 -75z" />
    <glyph glyph-name="G" unicode="G" horiz-adv-x="793" 
d="M753 253c-45 0 -78 -6 -78 -69v-172c-53 -3 -122 -20 -213 -20c-129 0 -231 25 -310 99c-61 58 -95 142 -95 245c0 102 35 193 104 255c66 61 165 96 291 96c101 0 172 -16 206 -17c13 0 33 1 33 1s-2 -44 -2 -84s2 -82 2 -82h-48c1 81 -42 119 -191 119
c-97 0 -165 -25 -209 -72c-43 -46 -63 -112 -63 -195c0 -102 29 -179 77 -229c53 -54 126 -76 207 -76c55 0 86 6 99 10v122c0 68 -41 69 -91 69v48c22 0 93 -2 143 -2s116 2 138 2v-48z" />
    <glyph glyph-name="H" unicode="H" horiz-adv-x="847" 
d="M802 0c-23 0 -85 2 -135 2s-112 -2 -134 -2v48c45 0 78 5 78 69v206h-379v-206c0 -64 34 -69 79 -69v-48c-23 0 -85 2 -135 2s-112 -2 -134 -2v48c45 0 79 5 79 69v449c0 64 -34 69 -79 69v48c22 0 85 -2 135 -2s111 2 134 2v-48c-45 0 -79 -5 -79 -69v-185h379v185
c0 64 -33 69 -78 69v48c22 0 86 -2 136 -2s110 2 133 2v-48c-45 0 -79 -5 -79 -69v-449c0 -64 34 -69 79 -69v-48z" />
    <glyph glyph-name="I" unicode="I" horiz-adv-x="356" 
d="M311 0c-23 0 -85 2 -135 2s-112 -2 -134 -2v48c45 0 79 5 79 69v449c0 64 -34 69 -79 69v48c22 0 85 -2 135 -2s111 2 134 2v-48c-45 0 -79 -5 -79 -69v-449c0 -64 34 -69 79 -69v-48z" />
    <glyph glyph-name="J" unicode="J" horiz-adv-x="340" 
d="M311 635c-45 0 -78 -5 -78 -69v-423c0 -105 -17 -162 -45 -208c-44 -72 -121 -110 -161 -125l-25 36c46 26 74 57 93 101c18 41 26 96 26 187v432c0 69 -41 69 -91 69v48c22 0 93 -1 143 -1s116 1 138 1v-48z" />
    <glyph glyph-name="K" unicode="K" horiz-adv-x="722" 
d="M715 0c-30 0 -87 2 -137 2s-109 -2 -139 -2v48c42 0 74 8 37 46l-237 235l240 242c9 10 17 20 17 34c0 16 -16 30 -64 30v48c30 0 79 -2 129 -2s100 2 130 2v-47c-33 0 -60 0 -130 -70l-200 -200l248 -246c65 -64 80 -72 106 -72v-48zM311 0c-23 0 -85 2 -135 2
s-112 -2 -134 -2v48c45 0 79 5 79 69v449c0 64 -34 69 -79 69v48c22 0 85 -2 135 -2s111 2 134 2v-48c-45 0 -79 -5 -79 -69v-449c0 -64 34 -69 79 -69v-48z" />
    <glyph glyph-name="L" unicode="L" horiz-adv-x="567" 
d="M552 0c-140 1 -313 1 -374 1c-50 0 -114 -1 -136 -1v48c45 0 79 5 79 69v449c0 69 -39 69 -85 69v48c23 0 91 -2 141 -2s104 2 139 2v-48c-45 0 -84 0 -84 -69v-427c0 -72 27 -79 142 -79c105 0 131 25 131 107h47s-2 -53 -2 -83s2 -84 2 -84z" />
    <glyph glyph-name="M" unicode="M" horiz-adv-x="936" 
d="M893 635c-55 0 -81 -5 -81 -83v-435c0 -64 33 -69 78 -69v-48c-22 0 -84 2 -134 2s-112 -2 -135 -2v48c46 0 79 5 79 69v398l-217 -515h-76l-222 487v-363c0 -67 39 -76 85 -76v-48c-30 0 -69 2 -119 2s-89 -2 -119 -2v48c45 0 84 9 84 76v428c0 73 -37 83 -94 83v48
c8 0 51 -2 101 -2s85 2 100 2l250 -546l229 546c11 0 45 -2 95 -2s81 2 96 2v-48z" />
    <glyph glyph-name="N" unicode="N" horiz-adv-x="811" 
d="M779 635c-45 0 -85 -11 -85 -78v-557h-67l-442 539v-413c0 -67 45 -78 95 -78v-48c-30 0 -79 2 -129 2s-89 -2 -119 -2v48c45 0 84 11 84 78v426c0 73 -40 83 -99 83v48c8 0 52 -1 102 -1s86 1 102 1l405 -497v371c0 67 -45 78 -95 78v48c30 0 77 -2 127 -2s91 2 121 2
v-48z" />
    <glyph glyph-name="O" unicode="O" horiz-adv-x="861" 
d="M796 343c0 -192 -139 -361 -362 -361c-228 0 -363 135 -363 349c0 219 145 370 380 370c227 0 345 -152 345 -358zM667 330c0 167 -55 313 -227 313c-156 0 -239 -120 -239 -298c0 -141 51 -304 237 -304c136 0 229 93 229 289z" />
    <glyph glyph-name="P" unicode="P" horiz-adv-x="587" 
d="M577 499c0 -142 -111 -228 -244 -228c-31 0 -53 2 -80 11v52s29 -10 79 -10c78 0 128 57 128 153c0 101 -56 150 -155 150c-57 0 -73 -3 -73 -3v-507c0 -69 41 -69 91 -69v-48c-22 0 -92 1 -142 1s-117 -1 -139 -1v48c45 0 79 5 79 69v449c0 69 -39 69 -90 69v48
c23 0 97 -1 147 -1s76 1 167 1c150 0 232 -73 232 -184z" />
    <glyph glyph-name="Q" unicode="Q" horiz-adv-x="861" 
d="M945 -136c-36 -23 -70 -45 -133 -45c-133 0 -305 127 -426 166c-48 5 -170 26 -240 117c-48 56 -75 132 -75 229c0 219 145 370 380 370c227 0 345 -152 345 -358c0 -173 -109 -308 -258 -347c132 -39 272 -103 327 -103c28 0 45 4 60 14zM667 330
c0 167 -55 313 -227 313c-156 0 -239 -120 -239 -298c0 -141 51 -304 236 -304c140 0 230 93 230 289z" />
    <glyph glyph-name="R" unicode="R" horiz-adv-x="728" 
d="M731 1c0 0 -29 -6 -62 -6c-72 0 -125 25 -189 96c-52 58 -80 102 -136 186c0 0 -38 1 -63 2c-16 1 -49 4 -49 4v-166c0 -64 34 -69 79 -69v-48c-23 0 -85 2 -135 2s-112 -2 -134 -2v48c45 0 79 5 79 69v449c0 69 -39 69 -90 69v48c23 0 97 -1 147 -1s90 1 183 1
c150 0 227 -80 227 -182c0 -41 -15 -79 -37 -108c-30 -41 -77 -71 -103 -82c23 -32 61 -84 110 -141c57 -68 123 -122 162 -122h11v-47zM471 488c0 93 -59 139 -147 139c-64 0 -92 -3 -92 -3v-288s32 -5 57 -5c31 -1 49 -1 49 -1c78 0 133 60 133 158z" />
    <glyph glyph-name="S" unicode="S" horiz-adv-x="564" 
d="M522 209c0 -131 -113 -214 -263 -214c-100 0 -139 31 -176 31h-30s2 56 2 86s-2 85 -2 85h48c0 -100 64 -144 162 -144c77 0 150 28 150 118c0 88 -91 107 -180 142c-89 36 -175 80 -175 192c0 64 32 113 83 144c41 24 94 37 154 37c84 0 117 -20 157 -20h28
s-2 -52 -2 -82s2 -79 2 -79h-47c0 45 -19 123 -137 123c-40 0 -70 -6 -92 -19c-28 -16 -41 -41 -41 -75c0 -82 86 -105 170 -139c102 -41 189 -72 189 -186z" />
    <glyph glyph-name="T" unicode="T" horiz-adv-x="678" 
d="M676 512h-47c0 80 -30 109 -133 109c-90 0 -103 -2 -103 -2v-502c0 -69 41 -69 91 -69v-48c-30 0 -97 1 -147 1s-117 -1 -147 -1v48c50 0 91 0 91 69v502s-14 2 -101 2c-103 0 -132 -29 -132 -109h-48s2 57 2 87s-2 86 -2 86c124 -4 231 -4 338 -4s210 0 338 4
c0 0 -2 -56 -2 -86s2 -87 2 -87z" />
    <glyph glyph-name="U" unicode="U" horiz-adv-x="805" 
d="M787 635c-45 0 -85 -9 -85 -76v-322c0 -186 -143 -251 -299 -251c-170 0 -300 66 -300 229v351c0 64 -33 69 -78 69v48c22 0 85 -2 135 -2s111 2 134 2v-48c-45 0 -79 -5 -79 -69v-307c0 -144 89 -196 209 -196c140 0 207 60 207 196v300c0 67 -40 76 -85 76v48
c30 0 70 -2 120 -2s91 2 121 2v-48z" />
    <glyph glyph-name="V" unicode="V" horiz-adv-x="744" 
d="M742 635c-60 1 -82 -31 -107 -89l-230 -546h-73l-224 537c-32 75 -48 98 -108 98v48c30 0 89 -2 139 -2s110 2 140 2v-48c-68 -1 -79 -20 -48 -92l164 -403l164 399c24 66 0 96 -64 96v48c30 0 74 -2 124 -2s93 2 123 2v-48z" />
    <glyph glyph-name="W" unicode="W" horiz-adv-x="1174" 
d="M1172 635c-60 1 -82 -31 -107 -89l-230 -546h-73l-179 429l-178 -429h-73l-224 537c-32 75 -48 98 -108 98v48c30 0 89 -2 139 -2s110 2 140 2v-48c-68 -1 -79 -20 -48 -92l164 -403l153 373l-10 24c-32 75 -48 98 -108 98v48c30 0 89 -2 139 -2s110 2 140 2v-48
c-68 -1 -79 -20 -48 -92l164 -403l164 399c24 66 0 96 -64 96v48c30 0 74 -2 124 -2s93 2 123 2v-48z" />
    <glyph glyph-name="X" unicode="X" horiz-adv-x="748" 
d="M726 -1c-30 0 -87 2 -137 2s-109 -2 -139 -2v48c61 0 68 27 34 70l-128 169l-127 -157c-12 -15 -20 -30 -20 -43c0 -21 18 -38 64 -38v-48c-30 0 -73 2 -123 2s-93 -2 -123 -2v47c60 0 86 34 121 77l171 212l-175 228c-35 45 -61 71 -103 71v48c30 0 87 -2 137 -2
s110 2 140 2v-48c-61 0 -68 -27 -35 -70l107 -141l106 130c12 15 20 30 20 43c0 21 -18 38 -64 38v48c30 0 73 -2 123 -2s93 2 123 2v-47c-60 0 -87 -34 -122 -77l-149 -185l194 -255c38 -50 63 -72 105 -72v-48z" />
    <glyph glyph-name="Y" unicode="Y" horiz-adv-x="711" 
d="M715 636c-60 0 -89 -34 -124 -77l-181 -224v-218c0 -69 41 -69 91 -69v-48c-30 0 -96 1 -146 1s-117 -1 -147 -1v48c50 0 91 0 91 69v184l-200 263c-37 49 -62 71 -104 71v48c30 0 86 -2 136 -2s110 2 140 2v-48c-61 0 -68 -26 -35 -70l138 -180l137 169
c10 12 17 26 18 38c0 23 -16 43 -63 43v48c30 0 74 -2 124 -2s95 2 125 2v-47z" />
    <glyph glyph-name="Z" unicode="Z" horiz-adv-x="668" 
d="M633 0c-168 0 -437 2 -496 2c-46 0 -55 -1 -95 -2v38l400 582h-230c-106 0 -119 -12 -119 -103h-48s2 53 2 83s-2 85 -2 85c157 -3 455 -3 455 -3s55 0 95 1v-38l-402 -582h264c110 0 128 27 128 110h48s-2 -56 -2 -86s2 -87 2 -87z" />
    <glyph glyph-name="bracketleft" unicode="[" horiz-adv-x="325" 
d="M306 711h-108v-889h107v-56h-205v1000h206v-55z" />
    <glyph glyph-name="backslash" unicode="\" horiz-adv-x="591" 
d="M591 -143l-66 -39l-524 909l65 39z" />
    <glyph glyph-name="bracketright" unicode="]" horiz-adv-x="329" 
d="M224 -234h-206v56h108v889h-108v55h206v-1000z" />
    <glyph glyph-name="asciicircum" unicode="^" horiz-adv-x="526" 
d="M469 383h-83l-123 288l-122 -288h-84l164 383h84z" />
    <glyph glyph-name="underscore" unicode="_" horiz-adv-x="501" 
d="M501 -100h-500v50h500v-50z" />
    <glyph glyph-name="grave" unicode="`" horiz-adv-x="434" 
d="M325 591l-36 -37l-203 150l63 64z" />
    <glyph glyph-name="a" unicode="a" horiz-adv-x="472" 
d="M466 49l-91 -59s-51 10 -88 73c-24 -35 -62 -72 -126 -72c-72 0 -129 50 -129 120c0 69 43 110 106 130c69 23 139 26 139 26v48c0 74 -52 98 -98 98c-53 0 -91 -36 -107 -62l-34 33c17 41 78 107 180 107c153 0 158 -119 158 -154l-4 -199c0 -47 53 -73 94 -89zM276 225
c-99 -11 -151 -28 -151 -83c0 -47 37 -76 80 -76c37 0 61 27 70 39z" />
    <glyph glyph-name="b" unicode="b" horiz-adv-x="581" 
d="M543 261c0 -156 -115 -271 -267 -271c-66 0 -138 17 -190 60v609c-36 7 -55 14 -84 24v44c42 5 111 24 145 39h46v-339c21 26 73 64 152 64c111 0 198 -85 198 -230zM429 224c0 126 -62 184 -139 184c-65 0 -91 -29 -97 -34v-292c11 -9 41 -34 98 -34
c79 0 138 60 138 176z" />
    <glyph glyph-name="c" unicode="c" horiz-adv-x="472" 
d="M458 83c-29 -39 -101 -91 -195 -91c-122 0 -218 88 -218 246c0 164 135 253 244 253c95 0 142 -39 164 -62l-63 -73c-28 23 -73 63 -136 63c-54 0 -104 -43 -104 -150c0 -130 72 -194 158 -194c52 0 95 20 125 50z" />
    <glyph glyph-name="d" unicode="d" horiz-adv-x="606" 
d="M584 31c-42 -5 -106 -26 -140 -40h-44v71c-29 -35 -90 -71 -156 -71c-105 0 -198 83 -198 235c0 169 119 265 262 265c58 0 85 -11 85 -11v179c-37 7 -55 14 -85 24v44c43 5 112 24 146 39h46v-669c36 -7 54 -12 84 -22v-44zM393 112v297c-23 14 -49 23 -86 23
c-81 0 -149 -51 -149 -181c0 -146 84 -178 143 -178c62 0 92 39 92 39z" />
    <glyph glyph-name="e" unicode="e" horiz-adv-x="506" 
d="M467 255l-315 1c0 -147 92 -179 152 -179c75 0 116 33 136 50l25 -42c-21 -27 -87 -95 -201 -95c-146 0 -220 111 -220 248c0 146 88 253 225 253c129 0 198 -95 198 -209v-27zM357 304c0 59 -27 132 -100 132c-67 0 -103 -68 -104 -132h204z" />
    <glyph glyph-name="f" unicode="f" horiz-adv-x="355" 
d="M457 726l-54 -77c-23 15 -57 37 -106 37c-75 0 -82 -63 -82 -148v-70h129v-60h-129v-296c0 -60 40 -64 80 -64v-48c-30 0 -82 2 -132 2s-99 -2 -126 -2v48c41 0 71 4 71 64v296h-76v60h76v56c0 169 121 243 217 243c60 0 100 -15 132 -41z" />
    <glyph glyph-name="g" unicode="g" horiz-adv-x="527" 
d="M520 413h-94c14 -19 33 -41 33 -94c0 -118 -110 -173 -205 -173c-49 0 -67 7 -67 7c-15 -4 -42 -19 -42 -42c0 -34 69 -35 152 -41c91 -8 203 -4 203 -111c0 -99 -111 -199 -263 -199c-136 0 -207 64 -207 128c0 62 62 100 90 113c-29 8 -69 36 -69 75c0 45 68 83 93 92
c-16 7 -96 51 -96 149c0 103 94 174 207 174c62 0 85 -13 110 -24h155v-54zM353 319c0 73 -37 121 -99 121c-71 0 -97 -61 -97 -119c0 -75 36 -123 98 -123c73 0 98 61 98 121zM419 -82c0 56 -69 52 -149 59c-40 3 -69 4 -112 11c-12 -5 -42 -26 -42 -64
c0 -59 69 -93 155 -93c85 0 148 38 148 87z" />
    <glyph glyph-name="h" unicode="h" horiz-adv-x="628" 
d="M600 0c-30 0 -75 2 -125 2s-100 -2 -124 -2v48c41 0 71 4 71 64v190c0 62 -39 104 -104 104c-56 0 -96 -30 -106 -47v-247c-1 -60 32 -64 71 -64v-48c-30 0 -75 2 -125 2s-98 -2 -125 -2v48c40 0 71 4 71 64v547c-36 7 -54 14 -84 24v44c42 5 112 24 146 39h46v-352
c13 19 65 77 159 77c62 0 158 -31 158 -161v-218c0 -60 33 -64 71 -64v-48z" />
    <glyph glyph-name="i" unicode="i" horiz-adv-x="313" 
d="M229 650c0 -41 -30 -67 -73 -67c-45 0 -71 29 -71 67c0 39 27 66 72 66c44 0 72 -26 72 -66zM285 0c-30 0 -75 2 -125 2s-100 -2 -124 -2v48c41 0 71 4 71 64v272c-36 7 -55 14 -85 24v45c43 5 112 24 146 38h46v-379c0 -60 33 -64 71 -64v-48z" />
    <glyph glyph-name="j" unicode="j" horiz-adv-x="308" 
d="M228 650c0 -41 -29 -67 -72 -67c-46 0 -73 29 -73 67c0 39 27 66 73 66c44 0 72 -26 72 -66zM213 21c0 -155 -125 -234 -201 -260l-23 34c74 38 117 104 117 216v373c-36 7 -55 14 -85 24v45c43 5 112 24 146 38h46v-470z" />
    <glyph glyph-name="k" unicode="k" horiz-adv-x="570" 
d="M283 0c-30 0 -75 2 -125 2s-98 -2 -125 -2v48c40 0 71 4 71 64v547c-36 7 -54 14 -84 24v44c42 5 112 24 146 39h46v-654c0 -60 32 -64 71 -64v-48zM570 0c-30 0 -69 2 -114 2c-50 0 -86 -2 -116 -2v48c29 0 50 13 19 44l-144 144l120 123c1 1 20 22 20 27
c11 22 -13 39 -41 39v47c30 0 67 -3 117 -2c50 -1 85 2 115 2v-47c-54 0 -83 -22 -127 -64l-96 -91l186 -187c18 -19 35 -35 61 -35v-48z" />
    <glyph glyph-name="l" unicode="l" horiz-adv-x="311" 
d="M283 0c-30 0 -75 2 -125 2s-98 -2 -125 -2v48c40 0 71 4 71 64v547c-36 7 -54 14 -84 24v44c42 5 112 24 146 39h46v-654c0 -60 32 -64 71 -64v-48z" />
    <glyph glyph-name="m" unicode="m" horiz-adv-x="936" 
d="M915 0c-30 0 -75 2 -125 2s-100 -2 -124 -2v48c41 0 71 4 71 64v190c0 62 -39 104 -104 104c-52 0 -91 -28 -104 -45c1 -5 3 -18 3 -32v-217c0 -60 32 -64 71 -64v-48c-30 0 -75 2 -125 2s-100 -2 -124 -2v48c40 0 71 4 71 64v190c0 62 -39 104 -105 104
c-56 0 -96 -30 -106 -47v-247c0 -60 33 -64 71 -64v-48c-30 0 -75 2 -125 2s-100 -2 -124 -2v48c41 0 71 4 71 64v272c-36 7 -55 14 -85 24v45c43 5 111 24 145 38h43v-80c13 19 69 80 163 80c48 0 116 -24 141 -86c15 20 80 86 172 86c62 0 158 -31 158 -161v-218
c0 -60 33 -64 71 -64v-48z" />
    <glyph glyph-name="n" unicode="n" horiz-adv-x="628" 
d="M603 0c-30 0 -75 2 -125 2s-100 -2 -124 -2v48c40 0 71 4 71 64v190c0 62 -39 104 -105 104c-56 0 -96 -30 -106 -47v-247c0 -60 33 -64 71 -64v-48c-30 0 -75 2 -125 2s-100 -2 -124 -2v48c41 0 71 4 71 64v272c-36 7 -55 14 -85 24v45c43 5 111 24 145 38h43v-80
c13 19 69 80 163 80c63 0 159 -31 159 -161v-218c0 -60 32 -64 71 -64v-48z" />
    <glyph glyph-name="o" unicode="o" horiz-adv-x="595" 
d="M548 244c0 -157 -120 -254 -255 -254c-143 0 -247 83 -247 248c0 149 114 253 255 253c163 0 247 -99 247 -247zM429 242c0 80 -24 191 -129 191c-108 0 -134 -103 -134 -190c0 -96 29 -194 132 -194c104 0 131 99 131 193z" />
    <glyph glyph-name="p" unicode="p" horiz-adv-x="607" 
d="M566 257c0 -174 -130 -266 -254 -266c-70 0 -100 19 -100 19v-132c0 -60 40 -64 80 -64v-48c-30 0 -82 2 -132 2s-99 -2 -126 -2v48c40 0 71 4 71 64v506c-37 7 -55 14 -85 24v45c43 5 112 24 146 38h45v-72c18 24 67 72 153 72c118 0 202 -91 202 -234zM448 226
c0 132 -68 181 -137 181c-66 0 -95 -37 -99 -41v-282s35 -36 100 -36c75 0 136 49 136 178z" />
    <glyph glyph-name="q" unicode="q" horiz-adv-x="590" 
d="M571 -234c-27 0 -76 2 -126 2s-102 -2 -132 -2v48c40 0 79 4 80 64v182c-27 -35 -76 -70 -148 -70c-107 0 -197 87 -197 236c0 169 115 265 261 265c73 0 118 -25 123 -29l21 32h47v-616c0 -60 31 -64 71 -64v-48zM393 114v290c-15 9 -43 28 -88 28
c-94 0 -145 -70 -145 -182c0 -137 74 -179 137 -179c51 0 83 28 96 43z" />
    <glyph glyph-name="r" unicode="r" horiz-adv-x="397" 
d="M388 372c-23 5 -38 7 -67 7c-46 0 -84 -14 -107 -40v-227c0 -60 40 -64 80 -64v-48c-30 0 -82 2 -132 2s-99 -2 -126 -2v48c41 0 71 4 71 64v272c-36 7 -55 14 -85 24v45c43 5 112 24 146 38h45v-98c21 44 73 97 132 97c19 0 33 -3 43 -7v-111z" />
    <glyph glyph-name="s" unicode="s" horiz-adv-x="440" 
d="M403 156c0 -113 -107 -163 -199 -163c-76 0 -110 22 -156 22c0 0 2 38 2 68s-2 68 -2 68h48c0 -34 -1 -105 114 -105c62 0 92 29 92 70c0 109 -255 57 -255 222c0 101 85 152 182 152c71 0 96 -18 143 -18c0 0 -2 -35 -2 -65s2 -64 2 -64h-47c0 44 -15 93 -97 93
c-55 0 -87 -19 -87 -64c0 -99 262 -62 262 -216z" />
    <glyph glyph-name="t" unicode="t" horiz-adv-x="373" 
d="M375 50c-19 -22 -76 -58 -155 -58c-80 0 -137 35 -136 139l5 276h-57v48c47 30 99 87 120 120h47l-2 -108h169v-60h-170l-4 -245c-2 -80 38 -96 81 -96c29 0 54 9 77 26z" />
    <glyph glyph-name="u" unicode="u" horiz-adv-x="616" 
d="M595 30c-42 -5 -106 -25 -140 -40h-44v79c-11 -20 -67 -78 -161 -78c-88 0 -155 47 -155 169v224c-37 7 -53 14 -83 24v45c43 5 114 24 144 38h46v-310c0 -74 32 -107 97 -107c56 0 88 27 105 48v262c-37 7 -55 14 -85 24v45c43 5 112 24 146 38h46v-394
c36 -7 54 -13 84 -23v-44z" />
    <glyph glyph-name="v" unicode="v" horiz-adv-x="552" 
d="M547 425c-36 1 -64 -13 -87 -76l-135 -349h-98l-155 388c-12 32 -37 37 -69 37v47c30 -2 77 -2 127 -2c50 -1 95 2 125 2v-47c-64 0 -69 -32 -58 -58l102 -258l93 244c2 5 5 16 5 28c0 23 -15 44 -57 44v47c30 0 54 -2 104 -2s73 2 103 2v-47z" />
    <glyph glyph-name="w" unicode="w" horiz-adv-x="855" 
d="M851 425c-37 1 -64 -13 -88 -76l-135 -349h-97l-105 262l-101 -262h-98l-155 388c-12 32 -37 37 -69 37v47c30 -2 77 -2 127 -2c50 -1 95 2 125 2v-47c-64 0 -69 -32 -58 -58l104 -262l91 243l-16 40c-13 32 -37 37 -69 37v47c30 -2 76 -2 126 -2c50 -1 96 2 126 2v-47
c-64 0 -70 -32 -59 -58l103 -258l92 244c2 5 6 16 6 28c0 23 -16 44 -58 44v47c30 0 54 -2 104 -2s74 2 104 2v-47z" />
    <glyph glyph-name="x" unicode="x" horiz-adv-x="521" 
d="M528 0c-30 1 -72 2 -122 2s-93 -1 -123 -2v48c23 0 62 8 34 43l-72 90l-69 -83c-20 -24 -6 -50 32 -50v-48c-30 0 -52 2 -102 2s-72 -2 -102 -2v48c34 0 69 14 97 50l108 127l-130 162c-21 25 -43 38 -77 38v47c30 -1 72 -2 122 -2s91 2 121 2v-47c-22 0 -56 -13 -32 -44
l63 -77l57 71c19 23 9 50 -30 50v47c30 0 52 -2 102 -2s71 2 101 2v-47c-35 0 -69 -15 -98 -51l-96 -115l139 -174c26 -32 43 -37 77 -37v-48z" />
    <glyph glyph-name="y" unicode="y" horiz-adv-x="552" 
d="M547 425c-36 1 -63 -13 -87 -76l-148 -377c-24 -58 -50 -110 -78 -147c-29 -38 -68 -60 -117 -60c-39 0 -76 9 -102 35l43 72c22 -14 47 -22 78 -23c41 -1 65 21 101 105c2 5 17 40 20 46h-30l-155 388c-12 32 -37 37 -69 37v47c30 -2 77 -2 127 -2c50 -1 95 2 125 2v-47
c-64 0 -69 -32 -58 -58l102 -257l93 243c2 5 5 16 5 28c0 23 -15 44 -57 44v47c30 0 54 -2 104 -2s73 2 103 2v-47z" />
    <glyph glyph-name="z" unicode="z" horiz-adv-x="494" 
d="M462 0c-61 0 -238 2 -338 2c-34 0 -99 -2 -99 -2v51l280 364h-148c-90 0 -78 -71 -78 -91h-48s2 39 2 74s-2 75 -2 75c20 -2 235 -2 316 -2c34 0 88 1 88 1v-48l-284 -364h184c90 0 80 79 80 99h47s-1 -44 -1 -79c0 -36 1 -80 1 -80z" />
    <glyph glyph-name="braceleft" unicode="{" horiz-adv-x="343" 
d="M348 -235c-85 -1 -137 9 -174 47c-47 49 -48 101 -48 211c0 173 -1 224 -86 224v39c83 0 86 51 86 224c0 110 2 162 48 211c39 41 89 48 174 47v-35c-41 0 -74 5 -100 -35c-29 -45 -17 -96 -17 -208c0 -193 -111 -217 -143 -224c32 -8 143 -30 143 -223
c0 -112 -12 -163 17 -208c26 -40 59 -35 100 -35v-35z" />
    <glyph glyph-name="bar" unicode="|" horiz-adv-x="304" 
d="M204 -234h-104v1000h104v-1000z" />
    <glyph glyph-name="braceright" unicode="}" horiz-adv-x="343" 
d="M303 247c-85 0 -85 -51 -85 -224c0 -110 -1 -162 -48 -211c-37 -38 -89 -48 -174 -47v35c41 0 74 -5 99 35c30 45 18 96 18 208c0 193 110 216 142 223c-32 8 -142 31 -142 224c0 112 12 163 -18 208c-25 40 -58 35 -99 35v35c85 1 135 -6 174 -47
c46 -49 48 -101 48 -211c0 -173 2 -224 85 -224v-39z" />
    <glyph glyph-name="asciitilde" unicode="~" 
d="M512 271c-34 -47 -80 -85 -140 -85c-50 0 -164 42 -214 42s-73 -21 -96 -52l-24 27c34 47 80 85 140 85c50 0 164 -42 214 -42s73 21 96 52z" />
    <glyph glyph-name="Adieresis" unicode="&#xc4;" horiz-adv-x="793" 
d="M564 827c0 -39 -31 -64 -63 -64c-43 0 -63 34 -63 64c0 36 25 63 63 63c42 0 63 -34 63 -63zM354 827c0 -39 -32 -64 -63 -64c-43 0 -64 34 -64 64c0 36 26 63 64 63c41 0 63 -34 63 -63zM781 0c-30 0 -89 2 -139 2s-109 -2 -139 -2v48c68 1 77 19 48 92l-53 127h-252
l-49 -123c-24 -66 0 -96 64 -96v-48c-30 0 -74 2 -124 2s-94 -2 -124 -2v48c60 -1 83 31 108 89l226 546h98l227 -537c33 -75 48 -98 109 -98v-48zM474 321l-104 250l-102 -250h206z" />
    <glyph glyph-name="Aring" unicode="&#xc5;" horiz-adv-x="793" 
d="M510 838c0 -64 -65 -97 -114 -97c-39 0 -114 17 -114 97c0 65 57 100 114 100c52 0 114 -25 114 -100zM781 0c-30 0 -89 2 -139 2s-109 -2 -139 -2v48c68 1 77 19 48 92l-53 127h-252l-49 -123c-24 -66 0 -96 64 -96v-48c-30 0 -74 2 -124 2s-94 -2 -124 -2v48
c60 -1 83 31 108 89l226 546h98l227 -537c33 -75 48 -98 109 -98v-48zM461 839c0 37 -29 62 -66 62c-39 0 -65 -23 -65 -60s27 -63 66 -63c41 0 65 23 65 61zM474 321l-104 250l-102 -250h206z" />
    <glyph glyph-name="Ccedilla" unicode="&#xc7;" horiz-adv-x="702" 
d="M650 15c-55 -1 -102 -22 -201 -22c-12 0 -24 0 -35 1l-21 -30c74 -13 127 -36 127 -87c0 -52 -66 -109 -128 -109c-30 0 -65 7 -83 27l43 51c44 -28 117 -28 117 9c0 35 -76 48 -132 57v45s35 40 35 41c-191 24 -316 140 -316 337c0 214 140 352 383 352
c92 0 146 -15 175 -16h35s-2 -54 -2 -84s2 -80 2 -80h-47c1 54 -21 118 -164 118c-184 0 -261 -104 -261 -270c0 -193 115 -300 274 -300c110 0 151 26 151 110h48s-2 -45 -2 -75s2 -75 2 -75z" />
    <glyph glyph-name="Eacute" unicode="&#xc9;" horiz-adv-x="624" 
d="M435 874l-203 -150l-35 37l176 177zM587 0c-141 1 -348 1 -409 1c-50 0 -114 -1 -136 -1v48c45 0 79 5 79 69v449c0 69 -39 69 -90 69v48c23 0 97 -1 147 -1s115 1 193 1c69 0 124 0 183 2c0 0 -2 -45 -2 -75s2 -75 2 -75h-47c0 79 -30 89 -152 89c-90 0 -108 -3 -123 -3
v-239h94c105 0 125 3 125 73h47c0 -30 -2 -58 -2 -108s2 -77 2 -107h-48c0 81 -21 86 -124 86h-94v-191c0 -66 27 -77 142 -77c121 0 165 7 165 101h48s-2 -49 -2 -79s2 -80 2 -80z" />
    <glyph glyph-name="Ntilde" unicode="&#xd1;" horiz-adv-x="811" 
d="M590 828c-36 -48 -76 -73 -129 -73s-93 32 -137 32c-27 0 -50 -13 -71 -41l-32 34c37 49 87 82 144 82c42 0 100 -36 140 -36c25 0 35 13 52 33zM779 635c-45 0 -85 -11 -85 -78v-557h-67l-442 539v-413c0 -67 45 -78 95 -78v-48c-30 0 -79 2 -129 2s-89 -2 -119 -2v48
c45 0 84 11 84 78v426c0 73 -40 83 -99 83v48c8 0 52 -1 102 -1s86 1 102 1l405 -497v371c0 67 -45 78 -95 78v48c30 0 77 -2 127 -2s91 2 121 2v-48z" />
    <glyph glyph-name="Odieresis" unicode="&#xd6;" horiz-adv-x="861" 
d="M600 827c0 -39 -31 -64 -63 -64c-43 0 -64 34 -64 64c0 36 26 63 64 63c42 0 63 -34 63 -63zM390 827c0 -39 -32 -64 -64 -64c-43 0 -63 34 -63 64c0 36 25 63 63 63c42 0 64 -34 64 -63zM796 343c0 -192 -139 -361 -362 -361c-228 0 -363 135 -363 349
c0 219 145 370 380 370c227 0 345 -152 345 -358zM667 330c0 167 -55 313 -227 313c-156 0 -239 -120 -239 -298c0 -141 51 -304 237 -304c136 0 229 93 229 289z" />
    <glyph glyph-name="Udieresis" unicode="&#xdc;" horiz-adv-x="805" 
d="M590 827c0 -39 -31 -64 -63 -64c-43 0 -63 34 -63 64c0 36 25 63 63 63c42 0 63 -34 63 -63zM380 827c0 -39 -32 -64 -63 -64c-43 0 -64 34 -64 64c0 36 26 63 64 63c41 0 63 -34 63 -63zM787 635c-45 0 -85 -9 -85 -76v-322c0 -186 -143 -251 -299 -251
c-170 0 -300 66 -300 229v351c0 64 -33 69 -78 69v48c22 0 85 -2 135 -2s111 2 134 2v-48c-45 0 -79 -5 -79 -69v-307c0 -144 89 -196 209 -196c140 0 207 60 207 196v300c0 67 -40 76 -85 76v48c30 0 70 -2 120 -2s91 2 121 2v-48z" />
    <glyph glyph-name="aacute" unicode="&#xe1;" horiz-adv-x="472" 
d="M351 695l-203 -151l-36 37l176 177zM466 49l-91 -59s-51 10 -88 73c-24 -35 -62 -72 -126 -72c-72 0 -129 50 -129 120c0 69 43 110 106 130c69 23 139 26 139 26v48c0 74 -52 98 -98 98c-53 0 -91 -36 -107 -62l-34 33c17 41 78 107 180 107c153 0 158 -119 158 -154
l-4 -199c0 -47 53 -73 94 -89zM276 225c-99 -11 -151 -28 -151 -83c0 -47 37 -76 80 -76c37 0 61 27 70 39z" />
    <glyph glyph-name="agrave" unicode="&#xe0;" horiz-adv-x="472" 
d="M328 581l-35 -37l-203 151l62 63zM466 49l-91 -59s-51 10 -88 73c-24 -35 -62 -72 -126 -72c-72 0 -129 50 -129 120c0 69 43 110 106 130c69 23 139 26 139 26v48c0 74 -52 98 -98 98c-53 0 -91 -36 -107 -62l-34 33c17 41 78 107 180 107c153 0 158 -119 158 -154
l-4 -199c0 -47 53 -73 94 -89zM276 225c-99 -11 -151 -28 -151 -83c0 -47 37 -76 80 -76c37 0 61 27 70 39z" />
    <glyph glyph-name="acircumflex" unicode="&#xe2;" horiz-adv-x="472" 
d="M410 587l-36 -35l-143 111h-33l-140 -110l-34 34l153 153h81zM466 49l-91 -59s-51 10 -88 73c-24 -35 -62 -72 -126 -72c-72 0 -129 50 -129 120c0 69 43 110 106 130c69 23 139 26 139 26v48c0 74 -52 98 -98 98c-53 0 -91 -36 -107 -62l-34 33c17 41 78 107 180 107
c153 0 158 -119 158 -154l-4 -199c0 -47 53 -73 94 -89zM276 225c-99 -11 -151 -28 -151 -83c0 -47 37 -76 80 -76c37 0 61 27 70 39z" />
    <glyph glyph-name="adieresis" unicode="&#xe4;" horiz-adv-x="472" 
d="M377 647c0 -39 -31 -63 -63 -63c-43 0 -63 34 -63 63c0 36 25 63 63 63c42 0 63 -34 63 -63zM167 647c0 -39 -32 -63 -63 -63c-43 0 -64 34 -64 63c0 36 26 63 64 63c41 0 63 -34 63 -63zM466 49l-91 -59s-51 10 -88 73c-24 -35 -62 -72 -126 -72c-72 0 -129 50 -129 120
c0 69 43 110 106 130c69 23 139 26 139 26v48c0 74 -52 98 -98 98c-53 0 -91 -36 -107 -62l-34 33c17 41 78 107 180 107c153 0 158 -119 158 -154l-4 -199c0 -47 53 -73 94 -89zM276 225c-99 -11 -151 -28 -151 -83c0 -47 37 -76 80 -76c37 0 61 27 70 39z" />
    <glyph glyph-name="atilde" unicode="&#xe3;" horiz-adv-x="472" 
d="M405 648c-36 -47 -76 -73 -129 -73s-93 32 -137 32c-27 0 -50 -13 -71 -41l-32 34c38 49 88 82 144 82c42 0 100 -36 140 -36c25 0 35 13 52 33zM466 49l-91 -59s-51 10 -88 73c-24 -35 -62 -72 -126 -72c-72 0 -129 50 -129 120c0 69 43 110 106 130
c69 23 139 26 139 26v48c0 74 -52 98 -98 98c-53 0 -91 -36 -107 -62l-34 33c17 41 78 107 180 107c153 0 158 -119 158 -154l-4 -199c0 -47 53 -73 94 -89zM276 225c-99 -11 -151 -28 -151 -83c0 -47 37 -76 80 -76c37 0 61 27 70 39z" />
    <glyph glyph-name="aring" unicode="&#xe5;" horiz-adv-x="472" 
d="M331 658c0 -63 -65 -97 -114 -97c-40 0 -114 17 -114 97c0 65 57 100 114 100c52 0 114 -25 114 -100zM466 49l-91 -59s-51 10 -88 73c-24 -35 -62 -72 -126 -72c-72 0 -129 50 -129 120c0 69 43 110 106 130c69 23 139 26 139 26v48c0 74 -52 98 -98 98
c-53 0 -91 -36 -107 -62l-34 33c17 41 78 107 180 107c153 0 158 -119 158 -154l-4 -199c0 -47 53 -73 94 -89zM282 659c0 37 -29 62 -66 62c-39 0 -65 -23 -65 -60s27 -63 66 -63c41 0 65 23 65 61zM276 225c-99 -11 -151 -28 -151 -83c0 -47 37 -76 80 -76
c37 0 61 27 70 39z" />
    <glyph glyph-name="ccedilla" unicode="&#xe7;" horiz-adv-x="472" 
d="M458 83c-28 -37 -95 -87 -183 -91l-22 -28c74 -13 125 -36 125 -87c0 -52 -66 -109 -128 -109c-30 0 -65 7 -83 27l43 51c44 -28 117 -28 117 9c0 35 -76 48 -132 57v45l35 37c-106 14 -185 100 -185 244c0 164 135 253 244 253c94 0 146 -42 164 -62l-63 -73
c-28 23 -73 63 -136 63c-54 0 -104 -43 -104 -150c0 -130 72 -194 158 -194c52 0 95 20 125 50z" />
    <glyph glyph-name="eacute" unicode="&#xe9;" horiz-adv-x="506" 
d="M410 695l-203 -151l-36 37l176 177zM467 255l-315 1c0 -147 92 -179 152 -179c75 0 116 33 136 50l25 -42c-21 -27 -87 -95 -201 -95c-146 0 -220 111 -220 248c0 146 88 253 225 253c129 0 198 -95 198 -209v-27zM357 304c0 59 -27 132 -100 132
c-67 0 -103 -68 -104 -132h204z" />
    <glyph glyph-name="egrave" unicode="&#xe8;" horiz-adv-x="506" 
d="M351 581l-35 -37l-203 151l62 63zM467 255l-315 1c0 -147 92 -179 152 -179c75 0 116 33 136 50l25 -42c-21 -27 -87 -95 -201 -95c-146 0 -220 111 -220 248c0 146 88 253 225 253c129 0 198 -95 198 -209v-27zM357 304c0 59 -27 132 -100 132c-67 0 -103 -68 -104 -132
h204z" />
    <glyph glyph-name="ecircumflex" unicode="&#xea;" horiz-adv-x="506" 
d="M451 577l-36 -35l-143 112h-33l-140 -111l-34 34l153 153h81zM467 255l-315 1c0 -147 92 -179 152 -179c75 0 116 33 136 50l25 -42c-21 -27 -87 -95 -201 -95c-146 0 -220 111 -220 248c0 146 88 253 225 253c129 0 198 -95 198 -209v-27zM357 304
c0 59 -27 132 -100 132c-67 0 -103 -68 -104 -132h204z" />
    <glyph glyph-name="edieresis" unicode="&#xeb;" horiz-adv-x="506" 
d="M428 647c0 -39 -31 -63 -63 -63c-43 0 -63 34 -63 63c0 36 25 63 63 63c42 0 63 -34 63 -63zM218 647c0 -39 -32 -63 -63 -63c-43 0 -64 34 -64 63c0 36 26 63 64 63c41 0 63 -34 63 -63zM467 255l-315 1c0 -147 92 -179 152 -179c75 0 116 33 136 50l25 -42
c-21 -27 -87 -95 -201 -95c-146 0 -220 111 -220 248c0 146 88 253 225 253c129 0 198 -95 198 -209v-27zM357 304c0 59 -27 132 -100 132c-67 0 -103 -68 -104 -132h204z" />
    <glyph glyph-name="iacute" unicode="&#xed;" horiz-adv-x="313" 
d="M261 695l-203 -151l-36 37l177 177zM285 0c-30 0 -75 2 -125 2s-100 -2 -124 -2v48c41 0 71 4 71 64v272c-36 7 -55 14 -85 24v45c43 5 112 24 146 38h46v-379c0 -60 33 -64 71 -64v-48z" />
    <glyph glyph-name="igrave" unicode="&#xec;" horiz-adv-x="313" 
d="M250 581l-36 -37l-203 151l63 63zM285 0c-30 0 -75 2 -125 2s-100 -2 -124 -2v48c41 0 71 4 71 64v272c-36 7 -55 14 -85 24v45c43 5 112 24 146 38h46v-379c0 -60 33 -64 71 -64v-48z" />
    <glyph glyph-name="icircumflex" unicode="&#xee;" horiz-adv-x="313" 
d="M348 577l-36 -35l-143 112h-33l-140 -111l-34 34l153 153h81zM285 0c-30 0 -75 2 -125 2s-100 -2 -124 -2v48c41 0 71 4 71 64v272c-36 7 -55 14 -85 24v45c43 5 112 24 146 38h46v-379c0 -60 33 -64 71 -64v-48z" />
    <glyph glyph-name="idieresis" unicode="&#xef;" horiz-adv-x="313" 
d="M329 647c0 -39 -31 -63 -63 -63c-43 0 -63 34 -63 63c0 36 25 63 63 63c42 0 63 -34 63 -63zM119 647c0 -39 -32 -63 -63 -63c-43 0 -64 34 -64 63c0 36 25 63 64 63c41 0 63 -34 63 -63zM285 0c-30 0 -75 2 -125 2s-100 -2 -124 -2v48c41 0 71 4 71 64v272
c-36 7 -55 14 -85 24v45c43 5 112 24 146 38h46v-379c0 -60 33 -64 71 -64v-48z" />
    <glyph glyph-name="ntilde" unicode="&#xf1;" horiz-adv-x="628" 
d="M504 648c-36 -47 -77 -73 -129 -73c-53 0 -94 32 -138 32c-26 0 -49 -13 -71 -41l-31 34c37 49 87 82 144 82c42 0 100 -36 139 -36c26 0 36 13 53 33zM603 0c-30 0 -75 2 -125 2s-100 -2 -124 -2v48c40 0 71 4 71 64v190c0 62 -39 104 -105 104c-56 0 -96 -30 -106 -47
v-247c0 -60 33 -64 71 -64v-48c-30 0 -75 2 -125 2s-100 -2 -124 -2v48c41 0 71 4 71 64v272c-36 7 -55 14 -85 24v45c43 5 111 24 145 38h43v-80c13 19 69 80 163 80c63 0 159 -31 159 -161v-218c0 -60 32 -64 71 -64v-48z" />
    <glyph glyph-name="oacute" unicode="&#xf3;" horiz-adv-x="595" 
d="M416 695l-203 -151l-35 37l176 177zM548 244c0 -157 -120 -254 -255 -254c-143 0 -247 83 -247 248c0 149 114 253 255 253c163 0 247 -99 247 -247zM429 242c0 80 -24 191 -129 191c-108 0 -134 -103 -134 -190c0 -96 29 -194 132 -194c104 0 131 99 131 193z" />
    <glyph glyph-name="ograve" unicode="&#xf2;" horiz-adv-x="595" 
d="M416 581l-35 -37l-203 151l62 63zM548 244c0 -157 -120 -254 -255 -254c-143 0 -247 83 -247 248c0 149 114 253 255 253c163 0 247 -99 247 -247zM429 242c0 80 -24 191 -129 191c-108 0 -134 -103 -134 -190c0 -96 29 -194 132 -194c104 0 131 99 131 193z" />
    <glyph glyph-name="ocircumflex" unicode="&#xf4;" horiz-adv-x="595" 
d="M490 577l-36 -35l-143 112h-33l-140 -111l-34 34l152 153h82zM548 244c0 -157 -120 -254 -255 -254c-143 0 -247 83 -247 248c0 149 114 253 255 253c163 0 247 -99 247 -247zM429 242c0 80 -24 191 -129 191c-108 0 -134 -103 -134 -190c0 -96 29 -194 132 -194
c104 0 131 99 131 193z" />
    <glyph glyph-name="odieresis" unicode="&#xf6;" horiz-adv-x="595" 
d="M468 647c0 -39 -32 -63 -63 -63c-43 0 -64 34 -64 63c0 36 26 63 64 63c41 0 63 -34 63 -63zM257 647c0 -39 -31 -63 -63 -63c-43 0 -64 34 -64 63c0 36 26 63 64 63c42 0 63 -34 63 -63zM548 244c0 -157 -120 -254 -255 -254c-143 0 -247 83 -247 248
c0 149 114 253 255 253c163 0 247 -99 247 -247zM429 242c0 80 -24 191 -129 191c-108 0 -134 -103 -134 -190c0 -96 29 -194 132 -194c104 0 131 99 131 193z" />
    <glyph glyph-name="otilde" unicode="&#xf5;" horiz-adv-x="595" 
d="M482 648c-36 -47 -77 -73 -129 -73c-53 0 -94 32 -138 32c-26 0 -49 -13 -71 -41l-31 34c37 49 87 82 144 82c42 0 100 -36 139 -36c26 0 36 13 53 33zM548 244c0 -157 -120 -254 -255 -254c-143 0 -247 83 -247 248c0 149 114 253 255 253c163 0 247 -99 247 -247z
M429 242c0 80 -24 191 -129 191c-108 0 -134 -103 -134 -190c0 -96 29 -194 132 -194c104 0 131 99 131 193z" />
    <glyph glyph-name="uacute" unicode="&#xfa;" horiz-adv-x="616" 
d="M440 695l-203 -151l-35 37l176 177zM595 30c-42 -5 -106 -25 -140 -40h-44v79c-11 -20 -67 -78 -161 -78c-88 0 -155 47 -155 169v224c-37 7 -53 14 -83 24v45c43 5 114 24 144 38h46v-310c0 -74 32 -107 97 -107c56 0 88 27 105 48v262c-37 7 -55 14 -85 24v45
c43 5 112 24 146 38h46v-394c36 -7 54 -13 84 -23v-44z" />
    <glyph glyph-name="ugrave" unicode="&#xf9;" horiz-adv-x="616" 
d="M421 581l-35 -37l-203 151l62 63zM595 30c-42 -5 -106 -25 -140 -40h-44v79c-11 -20 -67 -78 -161 -78c-88 0 -155 47 -155 169v224c-37 7 -53 14 -83 24v45c43 5 114 24 144 38h46v-310c0 -74 32 -107 97 -107c56 0 88 27 105 48v262c-37 7 -55 14 -85 24v45
c43 5 112 24 146 38h46v-394c36 -7 54 -13 84 -23v-44z" />
    <glyph glyph-name="ucircumflex" unicode="&#xfb;" horiz-adv-x="616" 
d="M496 582l-36 -35l-143 111h-33l-140 -111l-34 35l152 152h82zM595 30c-42 -5 -106 -25 -140 -40h-44v79c-11 -20 -67 -78 -161 -78c-88 0 -155 47 -155 169v224c-37 7 -53 14 -83 24v45c43 5 114 24 144 38h46v-310c0 -74 32 -107 97 -107c56 0 88 27 105 48v262
c-37 7 -55 14 -85 24v45c43 5 112 24 146 38h46v-394c36 -7 54 -13 84 -23v-44z" />
    <glyph glyph-name="udieresis" unicode="&#xfc;" horiz-adv-x="616" 
d="M471 647c0 -39 -31 -63 -63 -63c-43 0 -63 34 -63 63c0 36 25 63 63 63c42 0 63 -34 63 -63zM261 647c0 -39 -32 -63 -63 -63c-43 0 -64 34 -64 63c0 36 26 63 64 63c41 0 63 -34 63 -63zM595 30c-42 -5 -106 -25 -140 -40h-44v79c-11 -20 -67 -78 -161 -78
c-88 0 -155 47 -155 169v224c-37 7 -53 14 -83 24v45c43 5 114 24 144 38h46v-310c0 -74 32 -107 97 -107c56 0 88 27 105 48v262c-37 7 -55 14 -85 24v45c43 5 112 24 146 38h46v-394c36 -7 54 -13 84 -23v-44z" />
    <glyph glyph-name="dagger" unicode="&#x2020;" horiz-adv-x="501" 
d="M483 460c0 -21 -21 -51 -62 -51s-116 29 -148 31c2 -35 28 -296 28 -337c0 -32 -18 -120 -50 -120c-31 0 -53 88 -53 120c0 41 29 302 31 336c-34 -1 -108 -30 -149 -30s-62 30 -62 51s21 51 62 51s115 -28 149 -32c-1 36 -31 142 -31 183c0 31 31 39 53 39
c21 0 51 -8 51 -39c0 -41 -29 -147 -31 -183c34 4 109 32 150 32s62 -30 62 -51z" />
    <glyph glyph-name="degree" unicode="&#xb0;" horiz-adv-x="598" 
d="M444 556c0 -80 -59 -146 -144 -146c-88 0 -144 60 -144 146c0 80 62 146 144 146c92 0 144 -65 144 -146zM402 556c0 58 -41 109 -102 109c-64 0 -100 -51 -100 -109s36 -109 100 -109c66 0 102 47 102 109z" />
    <glyph glyph-name="cent" unicode="&#xa2;" horiz-adv-x="485" 
d="M460 83c-19 -29 -71 -75 -149 -88v-81h-54v78c-126 3 -212 93 -212 247c0 144 109 232 212 249v81h54v-79c68 0 124 -27 143 -46l-18 -96c-23 29 -66 67 -125 71v-347c65 2 104 32 124 53zM257 75v342c-43 -2 -105 -57 -105 -158c0 -115 52 -176 105 -184z" />
    <glyph glyph-name="sterling" unicode="&#xa3;" horiz-adv-x="637" 
d="M574 93c0 -70 -37 -95 -95 -95c-100 0 -221 4 -276 4c-50 0 -100 -2 -129 -2v48c96 0 116 45 107 242h-113v63h110l-4 73c-4 84 24 155 76 206c38 37 88 60 143 60c68 0 116 -29 132 -47l-45 -78c-8 10 -60 45 -116 45c-24 0 -42 -6 -55 -19c-24 -24 -28 -68 -25 -145
c0 0 2 -51 4 -95h208v-63h-206c0 -56 -4 -96 -17 -127c-13 -34 -32 -58 -55 -80c0 0 73 -5 134 -5c113 0 175 -3 175 96h47v-81z" />
    <glyph glyph-name="section" unicode="&#xa7;" horiz-adv-x="470" 
d="M428 374c0 -67 -47 -104 -95 -125c47 -18 90 -44 90 -105c0 -106 -108 -151 -206 -151c-80 0 -117 20 -162 20c0 0 2 38 2 68s-2 68 -2 68h48c0 -54 23 -104 123 -104c65 0 103 26 103 70c0 49 -64 64 -131 82c-74 21 -153 47 -153 133c-1 56 39 97 88 119
c-40 17 -78 48 -78 107c0 40 18 72 44 95c35 32 89 46 149 46c71 0 106 -16 148 -16c0 0 -2 -33 -2 -63s2 -62 2 -62h-48c0 45 -23 88 -106 88c-62 0 -99 -20 -99 -64c0 -51 61 -65 127 -81c75 -20 158 -45 158 -125zM336 338c0 62 -79 74 -150 93c-28 -9 -53 -32 -53 -70
c0 -55 68 -73 143 -92c36 10 60 34 60 69z" />
    <glyph glyph-name="bullet" unicode="&#x2022;" horiz-adv-x="472" 
d="M381 350c0 -80 -65 -144 -145 -144s-145 64 -145 144s65 145 145 145s145 -65 145 -145z" />
    <glyph glyph-name="paragraph" unicode="&#xb6;" horiz-adv-x="710" 
d="M652 691c-26 -38 -89 -60 -141 -60v-363h110v-53h-110v-34c0 -75 -34 -148 -84 -199c-38 -37 -84 -62 -126 -62s-79 13 -96 36l32 78c20 -17 54 -34 92 -34c59 0 70 33 71 107v108c-187 0 -337 53 -337 236c0 203 163 233 285 233c38 0 95 -1 116 -1c67 0 113 12 151 55z
M400 268v362c-79 0 -78 -53 -78 -179s-1 -183 78 -183z" />
    <glyph glyph-name="germandbls" unicode="&#xdf;" horiz-adv-x="690" 
d="M657 155c0 -109 -106 -162 -196 -162c-55 0 -99 11 -135 32v107c35 -36 94 -72 149 -72c50 0 83 19 83 58c0 99 -234 64 -234 217c0 147 214 125 214 240c0 104 -96 141 -172 141c-110 0 -148 -69 -148 -194v-409c0 -61 33 -65 73 -65v-48c-30 0 -78 2 -128 2
s-98 -2 -122 -2v48c40 0 70 5 70 65v294h-75v47c25 2 54 12 74 27c1 13 2 50 2 50c2 144 122 240 279 240c117 0 243 -46 243 -170c0 -158 -212 -133 -212 -227c0 -106 235 -70 235 -219z" />
    <glyph glyph-name="registered" unicode="&#xae;" horiz-adv-x="876" 
d="M805 336c0 -221 -161 -352 -365 -352c-164 0 -369 87 -369 352c0 228 162 358 367 358c193 0 367 -110 367 -358zM757 336c0 222 -156 321 -317 321c-172 0 -320 -92 -320 -315c0 -277 222 -321 328 -321c176 0 309 112 309 315zM662 144c0 0 -16 -6 -41 -6
c-37 0 -58 4 -81 27c-24 24 -77 93 -104 135c-3 1 -41 4 -58 6v-93c0 -32 23 -41 54 -41v-33c-30 0 -41 2 -91 2s-62 -2 -92 -2v34c31 0 55 9 55 41v248c0 32 -33 41 -61 41v33c24 0 52 -1 99 -1c48 0 63 1 90 2c105 2 161 -35 161 -105c0 -57 -60 -98 -87 -111
c14 -17 110 -149 156 -145v-32zM512 423c0 48 -25 77 -82 77c-31 0 -49 -2 -52 -2v-160c17 -3 43 -6 64 -6c42 0 70 40 70 91z" />
    <glyph glyph-name="copyright" unicode="&#xa9;" horiz-adv-x="876" 
d="M805 336c0 -221 -161 -352 -365 -352c-164 0 -369 87 -369 352c0 228 162 358 367 358c193 0 367 -110 367 -358zM757 336c0 222 -156 321 -317 321c-172 0 -320 -92 -320 -315c0 -277 222 -321 328 -321c176 0 309 112 309 315zM599 150c-47 0 -67 -14 -139 -14
c-164 0 -229 101 -229 205c0 131 98 203 236 203c85 0 83 -11 130 -11c0 0 -2 -23 -2 -53s2 -53 2 -53h-34c0 65 -40 78 -100 78c-116 0 -154 -67 -154 -156c0 -90 51 -174 162 -174c79 0 95 30 95 72h33s-2 -18 -2 -48s2 -49 2 -49z" />
    <glyph glyph-name="trademark" unicode="&#x2122;" horiz-adv-x="1044" 
d="M944 674c-29 0 -59 4 -59 -37v-182c0 -42 32 -39 52 -39v-38c-26 0 -46 2 -89 2c-44 0 -65 -2 -91 -2v38c20 0 53 -3 53 39v167l-116 -244h-38l-120 244v-163c0 -44 37 -43 56 -43v-38c-26 0 -35 1 -78 1c-44 0 -53 -1 -79 -1v38c20 0 57 -1 57 43v176
c0 40 -30 39 -59 39v38s36 -2 72 -2s73 2 73 2l119 -246l115 246s29 -2 66 -2c36 0 66 2 66 2v-38zM383 600h-37c0 44 -7 67 -49 67c-37 0 -57 -1 -57 -1v-211c0 -42 33 -39 53 -39v-38c-27 0 -46 2 -90 2s-64 -2 -91 -2v38c21 0 53 -3 53 39v211s-16 1 -53 1
c-42 0 -49 -23 -49 -67h-37s1 30 1 56c0 27 -1 57 -1 57c72 -1 152 -2 178 -2c27 0 107 1 179 2c0 0 -1 -83 -1 -57c0 27 1 -56 1 -56z" />
    <glyph glyph-name="acute" unicode="&#xb4;" horiz-adv-x="487" 
d="M405 704l-203 -150l-35 37l176 177z" />
    <glyph glyph-name="dieresis" unicode="&#xa8;" horiz-adv-x="487" 
d="M419 657c0 -39 -31 -64 -63 -64c-43 0 -63 34 -63 64c0 36 25 63 63 63c42 0 63 -34 63 -63zM209 657c0 -39 -32 -64 -63 -64c-43 0 -64 34 -64 64c0 36 25 63 64 63c41 0 63 -34 63 -63z" />
    <glyph glyph-name="notequal" unicode="&#x2260;" 
d="M512 107h-256l-47 -140h-50l47 140h-168v66h190l43 130h-233v66h255l47 139h50l-46 -139h168v-66h-191l-43 -130h234v-66z" />
    <glyph glyph-name="AE" unicode="&#xc6;" horiz-adv-x="1053" 
d="M1020 0c-141 1 -348 1 -409 1c-50 0 -113 -1 -136 -1v48c45 0 79 5 79 69v191h-215l-115 -162c-13 -17 -19 -33 -19 -48c0 -29 22 -50 72 -50v-48c-30 0 -89 2 -139 2s-101 -2 -131 -2v48c60 -1 94 40 125 82l412 553s29 -1 67 -1c50 0 115 1 193 1c69 0 124 0 183 2
c0 0 -2 -45 -2 -75s2 -75 2 -75h-47c0 79 -30 89 -152 89c-90 0 -108 -3 -123 -3v-241h94c105 0 125 3 125 73h47c0 -30 -2 -58 -2 -108s2 -77 2 -107h-48c0 81 -21 86 -124 86h-94v-189c0 -66 27 -77 142 -77c121 0 165 7 165 101h48s-2 -49 -2 -79s2 -80 2 -80zM554 363
v234l-173 -234h173z" />
    <glyph glyph-name="Oslash" unicode="&#xd8;" horiz-adv-x="861" 
d="M816 698l-100 -107c53 -63 80 -149 80 -248c0 -192 -139 -361 -362 -361c-92 0 -168 23 -227 63l-96 -102l-46 42l94 99c-57 60 -88 144 -88 247c0 219 145 370 380 370c91 0 164 -25 220 -68l99 108zM607 565c-36 48 -90 78 -167 78c-156 0 -239 -120 -239 -298
c0 -59 9 -124 35 -178zM667 330c0 65 -8 127 -29 178l-369 -395c37 -43 91 -72 169 -72c136 0 229 93 229 289z" />
    <glyph glyph-name="infinity" unicode="&#x221e;" horiz-adv-x="714" 
d="M689 279c8 -74 -55 -163 -147 -154c-103 10 -160 85 -184 106c-24 -21 -81 -96 -184 -106c-92 -9 -155 80 -147 154c9 88 105 155 202 112c47 -21 68 -39 129 -94c61 55 82 73 129 94c97 43 193 -24 202 -112zM639 259c1 44 -43 116 -129 86c-34 -12 -62 -33 -119 -81
c59 -57 76 -76 132 -89c55 -13 114 25 116 84zM325 264c-57 48 -85 69 -119 81c-86 30 -130 -42 -129 -86c2 -59 61 -97 116 -84c56 13 73 32 132 89z" />
    <glyph glyph-name="plusminus" unicode="&#xb1;" 
d="M512 335h-193v-203h-89v203h-192v84h192v203h89v-203h193v-84zM512 -1h-474v84h474v-84z" />
    <glyph glyph-name="lessequal" unicode="&#x2264;" 
d="M512 132l-474 203v84l474 203v-84l-379 -161l379 -161v-84zM512 -2h-474v84h474v-84z" />
    <glyph glyph-name="greaterequal" unicode="&#x2265;" 
d="M511 335l-474 -203v84l379 161l-379 161v84l474 -203v-84zM512 -2h-474v84h474v-84z" />
    <glyph glyph-name="yen" unicode="&#xa5;" horiz-adv-x="637" 
d="M651 635c-48 0 -77 -16 -110 -50l-169 -172v-66h153v-62h-153v-78h155v-62h-155v-33c0 -60 35 -64 75 -64v-48c-30 0 -78 2 -128 2s-102 -2 -129 -2v48c40 0 75 4 75 64v33h-150v62h150v78h-152v62h152v32l-196 200c-28 31 -68 57 -100 57v48c30 0 91 -2 141 -2
s111 2 141 2v-48c-38 0 -52 -11 -52 -25c0 -11 8 -22 16 -31l122 -126l115 123c8 7 14 18 14 28c0 16 -13 30 -59 30v48c30 0 72 -2 122 -2s92 2 122 2v-48z" />
    <glyph glyph-name="mu" unicode="&#xb5;" horiz-adv-x="585" 
d="M575 40l-77 -48s-58 20 -82 80c-24 -32 -78 -81 -161 -81c-56 0 -103 26 -122 75c3 -33 9 -68 27 -111c24 -56 81 -117 110 -129l-77 -48c-24 16 -59 51 -83 132c-21 72 -18 174 -17 248v319h84v-308c0 -81 51 -115 110 -115c52 0 88 20 113 48v375h84v-337
c0 -52 48 -82 91 -100z" />
    <glyph glyph-name="partialdiff" unicode="&#x2202;" horiz-adv-x="494" 
d="M462 393c0 -41 -12 -176 -52 -262c-27 -58 -48 -97 -104 -128c-69 -38 -144 -27 -195 8c-38 26 -78 70 -84 145c-7 81 31 146 55 175c35 43 78 73 142 71c59 -2 83 -16 150 -68c8 42 10 78 11 116c1 49 -19 127 -32 159c-12 28 -50 84 -112 89c-71 6 -78 -6 -137 -31
l-39 50c39 17 114 39 181 23c61 -15 120 -50 168 -134c45 -80 48 -188 48 -213zM366 299c-21 23 -47 65 -108 64c-37 -1 -70 -19 -96 -54c-40 -55 -50 -110 -50 -161c0 -29 1 -95 46 -125c28 -18 54 -18 83 -5c37 16 61 46 81 93c24 59 36 123 44 188z" />
    <glyph glyph-name="summation" unicode="&#x2211;" horiz-adv-x="713" 
d="M695 116c-25 -102 -30 -122 -43 -224c-26 4 -52 11 -77 11h-503c-20 0 -38 -3 -58 -3l349 398l-347 454c34 -2 70 -7 104 -7h497l6 -159h-20c-20 65 -25 114 -153 114h-263l273 -358l-294 -339h371c78 0 100 24 135 113h23z" />
    <glyph glyph-name="product" unicode="&#x220f;" horiz-adv-x="823" 
d="M803 -101h-306v23c58 0 96 11 96 81v693h-358v-693c0 -70 38 -81 97 -81v-23h-307v23c60 0 97 11 97 81v626c0 93 -67 99 -95 99v23h773v-23c-28 0 -94 -6 -94 -99v-626c0 -70 38 -81 97 -81v-23z" />
    <glyph glyph-name="pi" unicode="&#x3c0;" 
d="M530 151c-2 -91 -45 -139 -72 -154c-20 -12 -57 -21 -84 -2c-16 12 -37 38 -49 74c-13 39 -12 119 -7 171l17 161h-113c-16 -187 -34 -297 -46 -351c-8 -38 -23 -60 -55 -68c-27 -7 -57 15 -62 38c-8 34 11 50 23 66c16 21 45 44 50 86l29 229h-47c-28 0 -55 -16 -66 -32
l-21 -31h-17c5 14 15 55 45 97c17 24 48 52 94 52h373v-86h-126c-12 -117 -12 -197 -12 -235c0 -28 10 -59 25 -73c13 -12 42 -29 74 -4c25 19 23 47 26 62h21z" />
    <glyph glyph-name="integral" unicode="&#x222b;" horiz-adv-x="274" 
d="M282 835c-14 -17 -51 -29 -71 -7c-23 24 -39 8 -40 -10c-2 -37 19 -194 19 -330l-1 -216c-1 -157 -21 -247 -34 -293c-11 -38 -21 -51 -29 -61s-55 -36 -88 -20c-16 8 -29 28 -33 39c-8 22 0 43 24 55c23 12 39 -1 57 -20c30 -32 42 42 40 102c-2 74 -7 148 -6 314v144
c0 159 5 239 26 310c6 20 24 52 45 65c28 18 63 5 78 -5s33 -43 13 -67z" />
    <glyph glyph-name="ordfeminine" unicode="&#xaa;" horiz-adv-x="346" 
d="M330 430l-68 -43s-31 5 -55 38c-19 -21 -39 -38 -75 -38c-47 0 -84 33 -84 79c0 44 27 70 68 85c32 10 65 14 79 15v22c0 40 -28 52 -52 52c-30 0 -50 -19 -63 -40l-30 28c13 30 51 72 116 72c100 0 102 -76 102 -98l-3 -120c0 -26 30 -38 65 -52zM309 277h-271v64h271
v-64zM194 464v63c-50 -6 -77 -13 -77 -42c0 -23 17 -39 41 -39c16 0 29 10 36 18z" />
    <glyph glyph-name="ordmasculine" unicode="&#xba;" horiz-adv-x="397" 
d="M353 545c0 -99 -75 -159 -159 -159c-90 0 -155 52 -155 156c0 93 71 158 159 158c102 0 155 -63 155 -155zM331 273h-270v68h270v-68zM269 544c0 44 -13 108 -71 108c-61 0 -74 -58 -74 -107c0 -54 14 -111 72 -111s73 57 73 110z" />
    <glyph glyph-name="Omega" unicode="&#x2126;" horiz-adv-x="768" 
d="M736 0h-295l16 152c32 14 79 24 118 114c33 76 44 249 -45 338c-41 41 -94 52 -145 52s-104 -11 -145 -52c-89 -89 -78 -262 -45 -338c39 -90 86 -100 118 -114l16 -152h-295v162h15c12 -49 24 -61 66 -61h158l-2 28c-77 23 -126 49 -167 109c-70 103 -58 220 -16 295
c40 73 87 95 114 111c46 27 112 44 183 44s137 -17 183 -44c27 -16 74 -38 114 -111c42 -75 54 -192 -16 -295c-41 -60 -90 -86 -167 -109l-2 -28h158c42 0 54 12 66 61h15v-162z" />
    <glyph glyph-name="ae" unicode="&#xe6;" horiz-adv-x="734" 
d="M691 255l-315 1c0 -147 88 -179 153 -179c74 0 116 33 136 50l25 -42c-22 -27 -88 -95 -201 -95c-84 0 -142 36 -179 91c-25 -39 -81 -90 -149 -90c-72 0 -129 50 -129 120c0 69 43 110 106 130c69 23 139 26 139 26v48c0 74 -52 98 -98 98c-55 0 -92 -36 -107 -62
l-34 33c17 41 78 107 180 107c68 0 107 -27 128 -57c37 35 87 57 147 57c130 0 198 -95 198 -209v-27zM582 304c0 59 -27 132 -100 132c-68 0 -103 -68 -104 -132h204zM276 225c-99 -11 -151 -28 -151 -83c0 -47 37 -76 80 -76c37 0 61 27 70 39z" />
    <glyph glyph-name="oslash" unicode="&#xf8;" horiz-adv-x="595" 
d="M548 244c0 -157 -120 -254 -255 -254c-49 0 -94 10 -131 30l-59 -78l-43 33l57 75c-45 42 -71 104 -71 188c0 149 114 253 255 253c50 0 93 -9 128 -27l57 76l43 -32l-55 -73c49 -44 74 -111 74 -191zM381 400c-19 20 -46 33 -81 33c-108 0 -134 -103 -134 -190
c0 -37 4 -74 16 -107zM429 242c0 34 -4 74 -18 108l-200 -265c20 -22 48 -36 87 -36c104 0 131 99 131 193z" />
    <glyph glyph-name="questiondown" unicode="&#xbf;" horiz-adv-x="473" 
d="M374 515c0 -41 -32 -66 -72 -66c-36 0 -73 22 -73 66c0 43 32 66 73 66c43 0 72 -25 72 -66zM425 12l-1 -90c-18 -13 -66 -42 -144 -42c-135 0 -255 79 -255 220c0 128 82 170 165 190c70 16 133 20 133 50c0 21 -22 35 -31 40l39 27c28 -13 60 -57 60 -115
c0 -70 -85 -77 -175 -96c-60 -13 -121 -31 -121 -98c0 -73 88 -119 190 -119c80 0 127 27 140 33z" />
    <glyph glyph-name="exclamdown" unicode="&#xa1;" horiz-adv-x="297" 
d="M220 515c0 -42 -32 -67 -73 -67c-36 0 -73 22 -73 67c0 43 32 66 73 66c43 0 73 -26 73 -66zM209 46c0 -128 -5 -166 -63 -166c-55 0 -60 37 -60 166s34 294 34 327h55c0 -33 34 -204 34 -327z" />
    <glyph glyph-name="logicalnot" unicode="&#xac;" horiz-adv-x="550" 
d="M513 103h-90v201h-384v84h474v-285z" />
    <glyph glyph-name="radical" unicode="&#x221a;" 
d="M515 912l-150 -950l-243 502l-96 -47l-16 33l146 72l197 -403l127 798z" />
    <glyph glyph-name="florin" unicode="&#x192;" horiz-adv-x="637" 
d="M688 685c0 -39 -26 -69 -66 -69c-39 0 -55 26 -55 47c0 30 18 39 20 49c1 9 -16 12 -35 12c-75 0 -105 -80 -145 -275h126v-56h-140c-13 -78 -44 -217 -71 -310c-44 -150 -111 -251 -238 -251c-79 0 -131 26 -131 85c0 45 31 69 70 69c33 0 58 -17 58 -45
c0 -44 -35 -44 -35 -53c0 -14 32 -15 43 -15c89 0 113 129 143 246c25 100 57 252 61 274h-94v56h108c32 197 110 318 259 318c89 0 122 -37 122 -82z" />
    <glyph glyph-name="approxequal" unicode="&#x2248;" 
d="M527 370c-39 -66 -120 -91 -178 -74l-150 43c-95 27 -129 -37 -142 -53l-43 27c53 70 122 92 195 72l151 -42c20 -6 45 -5 79 9c16 7 39 24 51 42zM527 219c-39 -66 -120 -91 -178 -74l-150 43c-95 27 -129 -37 -142 -53l-43 27c53 70 122 92 195 72l151 -42
c20 -6 45 -5 79 9c16 7 39 24 51 42z" />
    <glyph glyph-name="Delta" unicode="&#x2206;" horiz-adv-x="612" 
d="M608 0h-602l320 688zM484 49l-194 468l-218 -468h412z" />
    <glyph glyph-name="guillemotleft" unicode="&#xab;" horiz-adv-x="479" 
d="M429 25h-52l-142 220l142 220h52l-86 -220zM238 25h-52l-143 220l143 220h52l-86 -220z" />
    <glyph glyph-name="guillemotright" unicode="&#xbb;" horiz-adv-x="479" 
d="M436 245l-143 -220h-51l85 220l-85 220h51zM245 245l-143 -220h-51l86 220l-86 220h51z" />
    <glyph glyph-name="ellipsis" unicode="&#x2026;" horiz-adv-x="1000" 
d="M958 59c0 -40 -30 -66 -73 -66c-46 0 -72 29 -72 67s28 66 73 66c44 0 72 -26 72 -67zM574 59c0 -40 -30 -66 -73 -66c-46 0 -72 29 -72 67s27 66 72 66s73 -26 73 -67zM190 59c0 -40 -30 -66 -73 -66c-46 0 -72 29 -72 67s28 66 73 66c44 0 72 -26 72 -67z" />
    <glyph glyph-name="nbspace" unicode="&#xa0;" horiz-adv-x="200" 
 />
    <glyph glyph-name="Agrave" unicode="&#xc0;" horiz-adv-x="793" 
d="M480 761l-35 -37l-203 150l62 64zM781 0c-30 0 -89 2 -139 2s-109 -2 -139 -2v48c68 1 77 19 48 92l-53 127h-252l-49 -123c-24 -66 0 -96 64 -96v-48c-30 0 -74 2 -124 2s-94 -2 -124 -2v48c60 -1 83 31 108 89l226 546h98l227 -537c33 -75 48 -98 109 -98v-48zM474 321
l-104 250l-102 -250h206z" />
    <glyph glyph-name="Atilde" unicode="&#xc3;" horiz-adv-x="793" 
d="M580 828c-36 -48 -77 -73 -129 -73c-53 0 -93 32 -137 32c-27 0 -50 -13 -72 -41l-31 34c37 49 87 82 144 82c42 0 100 -36 139 -36c26 0 36 13 53 33zM781 0c-30 0 -89 2 -139 2s-109 -2 -139 -2v48c68 1 77 19 48 92l-53 127h-252l-49 -123c-24 -66 0 -96 64 -96v-48
c-30 0 -74 2 -124 2s-94 -2 -124 -2v48c60 -1 83 31 108 89l226 546h98l227 -537c33 -75 48 -98 109 -98v-48zM474 321l-104 250l-102 -250h206z" />
    <glyph glyph-name="Otilde" unicode="&#xd5;" horiz-adv-x="861" 
d="M619 828c-36 -48 -77 -73 -129 -73c-53 0 -93 32 -137 32c-27 0 -50 -13 -72 -41l-31 34c37 49 87 82 144 82c42 0 100 -36 139 -36c26 0 36 13 53 33zM796 343c0 -192 -139 -361 -362 -361c-228 0 -363 135 -363 349c0 219 145 370 380 370c227 0 345 -152 345 -358z
M667 330c0 167 -55 313 -227 313c-156 0 -239 -120 -239 -298c0 -141 51 -304 237 -304c136 0 229 93 229 289z" />
    <glyph glyph-name="OE" unicode="&#x152;" horiz-adv-x="1060" 
d="M1023 0c-141 1 -296 1 -406 1c-72 1 -111 -6 -182 -6c-236 0 -372 137 -372 343s145 349 381 349c69 0 127 -5 166 -5c52 0 119 1 197 1c69 0 124 0 183 2c0 0 -2 -45 -2 -75s2 -75 2 -75h-47c0 79 -30 89 -152 89c-90 0 -108 -3 -123 -3v-239h94c105 0 125 3 125 73h47
c0 -30 -2 -58 -2 -108s2 -77 2 -107h-48c0 81 -21 86 -124 86h-94v-191c0 -66 27 -77 142 -77c121 0 165 7 165 101h48s-2 -49 -2 -79s2 -80 2 -80zM557 67v550c-30 7 -55 13 -116 13c-171 0 -248 -118 -248 -288c0 -175 89 -290 246 -290c62 0 88 5 118 15z" />
    <glyph glyph-name="oe" unicode="&#x153;" horiz-adv-x="897" 
d="M854 255l-315 1c0 -147 91 -179 153 -179c74 0 116 33 136 50l25 -42c-22 -27 -88 -95 -201 -95c-77 0 -134 31 -170 80c-47 -51 -116 -80 -189 -80c-143 0 -247 83 -247 248c0 149 114 253 255 253c85 0 148 -28 189 -75c39 47 96 75 166 75c130 0 198 -95 198 -209v-27
zM745 304c0 59 -27 132 -100 132c-68 0 -103 -68 -104 -132h204zM429 242c0 80 -23 191 -128 191c-108 0 -135 -103 -135 -190c0 -96 29 -194 132 -194c105 0 131 99 131 193z" />
    <glyph glyph-name="endash" unicode="&#x2013;" horiz-adv-x="500" 
d="M500 207h-500v64h500v-64z" />
    <glyph glyph-name="emdash" unicode="&#x2014;" horiz-adv-x="1000" 
d="M1000 207h-1000v64h1000v-64z" />
    <glyph glyph-name="quotedblleft" unicode="&#x201c;" horiz-adv-x="483" 
d="M452 727c-27 -8 -100 -35 -108 -113c6 3 12 4 21 4c27 -1 65 -19 65 -66c0 -40 -29 -66 -71 -66c-59 0 -89 46 -89 106c0 102 98 166 151 176zM215 727c-28 -8 -101 -35 -109 -113c7 3 13 4 22 4c27 -1 65 -19 65 -66c0 -40 -30 -66 -72 -66c-59 0 -89 46 -89 106
c0 102 98 166 151 176z" />
    <glyph glyph-name="quotedblright" unicode="&#x201d;" horiz-adv-x="483" 
d="M457 661c0 -102 -97 -166 -150 -176l-32 41c28 8 101 34 109 112c-7 -2 -13 -3 -22 -3c-27 1 -65 18 -65 65c0 41 30 67 72 67c59 0 88 -46 88 -106zM217 661c0 -102 -98 -166 -151 -176l-32 41c28 8 101 34 109 112c-7 -2 -13 -3 -22 -3c-27 1 -65 18 -65 65
c0 41 30 67 72 67c59 0 89 -46 89 -106z" />
    <glyph glyph-name="quoteleft" unicode="&#x2018;" horiz-adv-x="237" 
d="M215 727c-28 -8 -101 -35 -109 -113c7 3 13 4 22 4c27 -1 65 -19 65 -66c0 -40 -30 -66 -72 -66c-59 0 -89 46 -89 106c0 102 98 166 151 176z" />
    <glyph glyph-name="quoteright" unicode="&#x2019;" horiz-adv-x="241" 
d="M217 661c0 -102 -98 -166 -151 -176l-32 41c28 8 101 34 109 112c-7 -2 -13 -3 -22 -3c-27 1 -65 18 -65 65c0 41 30 67 72 67c59 0 89 -46 89 -106z" />
    <glyph glyph-name="divide" unicode="&#xf7;" 
d="M347 431c0 -43 -32 -67 -73 -67c-46 0 -73 30 -73 67s27 66 73 66s73 -28 73 -66zM511 203h-474v84h474v-84zM346 60c0 -41 -30 -67 -73 -67c-45 0 -72 29 -72 67c0 39 28 66 73 66c44 0 72 -26 72 -66z" />
    <glyph glyph-name="lozenge" unicode="&#x25ca;" horiz-adv-x="494" 
d="M466 377l-194 -377h-60l-194 377l194 368h60zM406 377l-164 314l-164 -314l164 -323z" />
    <glyph glyph-name="ydieresis" unicode="&#xff;" horiz-adv-x="552" 
d="M439 647c0 -39 -31 -63 -63 -63c-43 0 -63 34 -63 63c0 36 25 63 63 63c42 0 63 -34 63 -63zM229 647c0 -39 -32 -63 -63 -63c-43 0 -64 34 -64 63c0 36 26 63 64 63c41 0 63 -34 63 -63zM547 425c-36 1 -63 -13 -87 -76l-148 -377c-24 -58 -50 -110 -78 -147
c-29 -38 -68 -60 -117 -60c-39 0 -76 9 -102 35l43 72c22 -14 47 -22 78 -23c41 -1 65 21 101 105c2 5 17 40 20 46h-30l-155 388c-12 32 -37 37 -69 37v47c30 -2 77 -2 127 -2c50 -1 95 2 125 2v-47c-64 0 -69 -32 -58 -58l102 -257l93 243c2 5 5 16 5 28
c0 23 -15 44 -57 44v47c30 0 54 -2 104 -2s73 2 103 2v-47z" />
    <glyph glyph-name="Ydieresis" unicode="&#x178;" horiz-adv-x="711" 
d="M526 827c0 -39 -32 -64 -63 -64c-43 0 -64 34 -64 64c0 36 26 63 64 63c41 0 63 -34 63 -63zM315 827c0 -39 -31 -64 -63 -64c-43 0 -64 34 -64 64c0 36 26 63 64 63c42 0 63 -34 63 -63zM715 636c-60 0 -89 -34 -124 -77l-181 -224v-218c0 -69 41 -69 91 -69v-48
c-30 0 -96 1 -146 1s-117 -1 -147 -1v48c50 0 91 0 91 69v184l-200 263c-37 49 -62 71 -104 71v48c30 0 86 -2 136 -2s110 2 140 2v-48c-61 0 -68 -26 -35 -70l138 -180l137 169c10 12 17 26 18 38c0 23 -16 43 -63 43v48c30 0 74 -2 124 -2s95 2 125 2v-47z" />
    <glyph glyph-name="fraction" unicode="&#x2044;" horiz-adv-x="1000" 
d="M726 739l-470 -847l-61 35l469 846z" />
    <glyph glyph-name="currency" unicode="&#xa4;" horiz-adv-x="598" 
d="M516 165l-39 -39l-53 51c-34 -26 -79 -43 -125 -43c-49 0 -93 16 -127 41l-51 -48l-37 36l49 51c-25 36 -40 81 -40 127c0 45 16 89 42 124l-51 54l39 39l52 -51c34 25 77 42 124 42c50 0 95 -15 129 -40l49 47l37 -36l-47 -49c25 -34 40 -79 40 -128
c0 -45 -16 -89 -43 -125zM443 342c0 80 -57 151 -144 151s-141 -65 -141 -152s61 -150 143 -150c90 0 142 71 142 151z" />
    <glyph glyph-name="guilsinglleft" unicode="&#x2039;" horiz-adv-x="289" 
d="M238 25h-51l-143 220l143 220h51l-85 -220z" />
    <glyph glyph-name="guilsinglright" unicode="&#x203a;" horiz-adv-x="289" 
d="M254 245l-143 -220h-52l86 220l-86 220h52z" />
    <glyph glyph-name="fi" unicode="&#xfb01;" horiz-adv-x="618" 
d="M590 0c-30 0 -75 2 -125 2s-97 -2 -124 -2v48c41 0 71 4 71 64v296h-197v-296c0 -60 40 -64 80 -64v-48c-30 0 -82 2 -132 2s-99 -2 -126 -2v48c41 0 71 4 71 64v296h-76v60h75v57c0 82 37 148 87 190c40 33 87 52 141 52c96 0 148 -36 164 -49l-55 -81
c-16 13 -68 53 -140 53c-83 0 -89 -83 -89 -153v-69h194c20 0 52 20 63 26h47v-382c0 -60 33 -64 71 -64v-48z" />
    <glyph glyph-name="fl" unicode="&#xfb02;" horiz-adv-x="623" 
d="M595 0c-26 0 -75 2 -125 2s-97 -2 -124 -2v48c41 0 71 4 71 64v296h-202v-296c0 -60 40 -64 80 -64v-48c-30 0 -82 2 -132 2s-99 -2 -126 -2v48c41 0 71 4 71 64v296h-76v60h75v56c0 161 125 243 219 243c51 0 72 -12 86 -19c0 0 0 -13 1 -13c19 4 51 23 64 32h47v-655
c0 -60 33 -64 71 -64v-48zM417 468v189c-7 2 -8 4 -21 9c0 1 -1 -8 -1 -8c-14 10 -42 29 -95 29c-80 0 -85 -64 -85 -149v-70h202z" />
    <glyph glyph-name="daggerdbl" unicode="&#x2021;" horiz-adv-x="501" 
d="M483 224c0 -22 -20 -51 -61 -51c-40 0 -115 30 -150 31c2 -35 32 -142 32 -183c0 -31 -30 -38 -52 -38c-21 0 -52 7 -52 38c0 41 29 148 30 183c-32 -1 -107 -31 -148 -31s-62 29 -62 51c0 20 21 50 62 50s116 -30 147 -31c0 73 -40 99 -40 99s40 24 40 98
c-35 -2 -108 -30 -149 -30s-62 30 -62 50c0 21 21 50 62 50s114 -29 149 -30c-2 35 -34 140 -34 181c0 32 33 40 55 40s54 -8 54 -40c0 -41 -32 -146 -33 -181c34 1 108 30 149 30s61 -29 61 -50c0 -20 -20 -50 -61 -50s-115 28 -148 30c0 -74 40 -98 40 -98
s-40 -26 -40 -98c35 0 110 30 150 30c41 0 61 -30 61 -50z" />
    <glyph glyph-name="periodcentered" unicode="&#xb7;" horiz-adv-x="237" 
d="M190 248c0 -41 -30 -67 -73 -67c-46 0 -72 30 -72 67c0 39 28 67 73 67c44 0 72 -26 72 -67z" />
    <glyph glyph-name="quotesinglbase" unicode="&#x201a;" horiz-adv-x="263" 
d="M216 11c0 -102 -98 -166 -150 -176l-32 41c28 8 100 35 108 113c-5 -3 -11 -4 -19 -4c-27 0 -67 17 -67 66c0 40 29 66 72 66c59 0 88 -46 88 -106z" />
    <glyph glyph-name="quotedblbase" unicode="&#x201e;" horiz-adv-x="504" 
d="M457 11c0 -102 -97 -166 -150 -176l-32 41c28 8 101 35 109 113c-7 -3 -13 -4 -22 -4c-27 1 -65 19 -65 66c0 40 30 66 72 66c59 0 88 -46 88 -106zM216 11c0 -102 -98 -166 -150 -176l-32 41c28 8 100 35 108 113c-6 -3 -12 -4 -21 -4c-27 1 -65 19 -65 66
c0 40 29 66 72 66c59 0 88 -46 88 -106z" />
    <glyph glyph-name="perthousand" unicode="&#x2030;" horiz-adv-x="1209" 
d="M396 580c0 -102 -83 -176 -186 -176c-106 0 -172 68 -172 171c0 95 78 172 183 172c108 0 175 -64 175 -167zM673 744l-489 -849l-57 33l488 850zM1171 103c0 -102 -81 -176 -186 -176c-103 0 -172 68 -172 171c0 95 78 172 183 172c107 0 175 -63 175 -167zM757 103
c0 -102 -84 -176 -186 -176c-106 0 -172 68 -172 171c0 95 78 172 183 172c107 0 175 -63 175 -167zM308 573c0 73 -25 132 -89 132c-77 0 -94 -76 -94 -129c0 -82 36 -128 92 -128c74 0 91 65 91 125zM1083 96c0 73 -25 132 -89 132c-77 0 -94 -76 -94 -129
c0 -82 30 -128 92 -128c74 0 91 65 91 125zM669 96c0 73 -25 132 -89 132c-77 0 -94 -76 -94 -129c0 -82 35 -128 92 -128c74 0 91 65 91 125z" />
    <glyph glyph-name="Acircumflex" unicode="&#xc2;" horiz-adv-x="793" 
d="M589 757l-36 -35l-143 111h-33l-140 -110l-34 34l152 153h82zM781 0c-30 0 -89 2 -139 2s-109 -2 -139 -2v48c68 1 77 19 48 92l-53 127h-252l-49 -123c-24 -66 0 -96 64 -96v-48c-30 0 -74 2 -124 2s-94 -2 -124 -2v48c60 -1 83 31 108 89l226 546h98l227 -537
c33 -75 48 -98 109 -98v-48zM474 321l-104 250l-102 -250h206z" />
    <glyph glyph-name="Ecircumflex" unicode="&#xca;" horiz-adv-x="624" 
d="M505 757l-36 -35l-143 111h-33l-140 -110l-34 34l152 153h82zM587 0c-141 1 -348 1 -409 1c-50 0 -114 -1 -136 -1v48c45 0 79 5 79 69v449c0 69 -39 69 -90 69v48c23 0 97 -1 147 -1s115 1 193 1c69 0 124 0 183 2c0 0 -2 -45 -2 -75s2 -75 2 -75h-47
c0 79 -30 89 -152 89c-90 0 -108 -3 -123 -3v-239h94c105 0 125 3 125 73h47c0 -30 -2 -58 -2 -108s2 -77 2 -107h-48c0 81 -21 86 -124 86h-94v-191c0 -66 27 -77 142 -77c121 0 165 7 165 101h48s-2 -49 -2 -79s2 -80 2 -80z" />
    <glyph glyph-name="Aacute" unicode="&#xc1;" horiz-adv-x="793" 
d="M550 874l-203 -150l-36 37l176 177zM781 0c-30 0 -89 2 -139 2s-109 -2 -139 -2v48c68 1 77 19 48 92l-53 127h-252l-49 -123c-24 -66 0 -96 64 -96v-48c-30 0 -74 2 -124 2s-94 -2 -124 -2v48c60 -1 83 31 108 89l226 546h98l227 -537c33 -75 48 -98 109 -98v-48z
M474 321l-104 250l-102 -250h206z" />
    <glyph glyph-name="Edieresis" unicode="&#xcb;" horiz-adv-x="624" 
d="M477 827c0 -39 -31 -64 -63 -64c-43 0 -63 34 -63 64c0 36 25 63 63 63c42 0 63 -34 63 -63zM267 827c0 -39 -32 -64 -63 -64c-43 0 -64 34 -64 64c0 36 26 63 64 63c41 0 63 -34 63 -63zM587 0c-141 1 -348 1 -409 1c-50 0 -114 -1 -136 -1v48c45 0 79 5 79 69v449
c0 69 -39 69 -90 69v48c23 0 97 -1 147 -1s115 1 193 1c69 0 124 0 183 2c0 0 -2 -45 -2 -75s2 -75 2 -75h-47c0 79 -30 89 -152 89c-90 0 -108 -3 -123 -3v-239h94c105 0 125 3 125 73h47c0 -30 -2 -58 -2 -108s2 -77 2 -107h-48c0 81 -21 86 -124 86h-94v-191
c0 -66 27 -77 142 -77c121 0 165 7 165 101h48s-2 -49 -2 -79s2 -80 2 -80z" />
    <glyph glyph-name="Egrave" unicode="&#xc8;" horiz-adv-x="624" 
d="M409 761l-36 -37l-203 150l63 64zM587 0c-141 1 -348 1 -409 1c-50 0 -114 -1 -136 -1v48c45 0 79 5 79 69v449c0 69 -39 69 -90 69v48c23 0 97 -1 147 -1s115 1 193 1c69 0 124 0 183 2c0 0 -2 -45 -2 -75s2 -75 2 -75h-47c0 79 -30 89 -152 89c-90 0 -108 -3 -123 -3
v-239h94c105 0 125 3 125 73h47c0 -30 -2 -58 -2 -108s2 -77 2 -107h-48c0 81 -21 86 -124 86h-94v-191c0 -66 27 -77 142 -77c121 0 165 7 165 101h48s-2 -49 -2 -79s2 -80 2 -80z" />
    <glyph glyph-name="Iacute" unicode="&#xcd;" horiz-adv-x="356" 
d="M324 874l-203 -150l-36 37l176 177zM311 0c-23 0 -85 2 -135 2s-112 -2 -134 -2v48c45 0 79 5 79 69v449c0 64 -34 69 -79 69v48c22 0 85 -2 135 -2s111 2 134 2v-48c-45 0 -79 -5 -79 -69v-449c0 -64 34 -69 79 -69v-48z" />
    <glyph glyph-name="Icircumflex" unicode="&#xce;" horiz-adv-x="356" 
d="M371 757l-36 -35l-143 111h-33l-140 -110l-34 34l152 153h82zM311 0c-23 0 -85 2 -135 2s-112 -2 -134 -2v48c45 0 79 5 79 69v449c0 64 -34 69 -79 69v48c22 0 85 -2 135 -2s111 2 134 2v-48c-45 0 -79 -5 -79 -69v-449c0 -64 34 -69 79 -69v-48z" />
    <glyph glyph-name="Idieresis" unicode="&#xcf;" horiz-adv-x="356" 
d="M345 827c0 -39 -31 -64 -63 -64c-43 0 -63 34 -63 64c0 36 25 63 63 63c42 0 63 -34 63 -63zM135 827c0 -39 -32 -64 -63 -64c-43 0 -64 34 -64 64c0 36 26 63 64 63c41 0 63 -34 63 -63zM311 0c-23 0 -85 2 -135 2s-112 -2 -134 -2v48c45 0 79 5 79 69v449
c0 64 -34 69 -79 69v48c22 0 85 -2 135 -2s111 2 134 2v-48c-45 0 -79 -5 -79 -69v-449c0 -64 34 -69 79 -69v-48z" />
    <glyph glyph-name="Igrave" unicode="&#xcc;" horiz-adv-x="356" 
d="M268 761l-35 -37l-203 150l62 64zM311 0c-23 0 -85 2 -135 2s-112 -2 -134 -2v48c45 0 79 5 79 69v449c0 64 -34 69 -79 69v48c22 0 85 -2 135 -2s111 2 134 2v-48c-45 0 -79 -5 -79 -69v-449c0 -64 34 -69 79 -69v-48z" />
    <glyph glyph-name="Oacute" unicode="&#xd3;" horiz-adv-x="861" 
d="M553 874l-203 -150l-36 37l176 177zM796 343c0 -192 -139 -361 -362 -361c-228 0 -363 135 -363 349c0 219 145 370 380 370c227 0 345 -152 345 -358zM667 330c0 167 -55 313 -227 313c-156 0 -239 -120 -239 -298c0 -141 51 -304 237 -304c136 0 229 93 229 289z" />
    <glyph glyph-name="Ocircumflex" unicode="&#xd4;" horiz-adv-x="861" 
d="M634 757l-36 -35l-143 111h-34l-140 -110l-34 34l153 153h82zM796 343c0 -192 -139 -361 -362 -361c-228 0 -363 135 -363 349c0 219 145 370 380 370c227 0 345 -152 345 -358zM667 330c0 167 -55 313 -227 313c-156 0 -239 -120 -239 -298c0 -141 51 -304 237 -304
c136 0 229 93 229 289z" />
    <glyph glyph-name="apple" horiz-adv-x="804" 
d="M672 272c0 -166 -110 -281 -203 -281c-50 0 -41 17 -60 17c-20 0 -10 -17 -68 -17c-50 0 -211 65 -211 288c0 114 48 164 135 164c75 0 80 -26 104 -26c32 0 15 61 14 107c-1 59 13 116 54 146c49 36 149 21 149 90h3c6 -16 19 -72 4 -134c-25 -108 -183 -86 -183 -153
c0 -25 3 -59 29 -59c19 0 21 29 106 29c119 0 127 -91 127 -171zM582 709c-19 -45 -60 -64 -102 -93c-47 -32 -65 -62 -80 -104c37 70 65 72 112 106c36 26 67 56 70 91zM312 137c-54 115 -3 130 -3 184c0 19 -2 41 -30 41c-41 0 -52 -35 -52 -62c0 -49 55 -125 85 -163z
" />
    <glyph glyph-name="Ograve" unicode="&#xd2;" horiz-adv-x="861" 
d="M553 761l-36 -37l-203 150l63 64zM796 343c0 -192 -139 -361 -362 -361c-228 0 -363 135 -363 349c0 219 145 370 380 370c227 0 345 -152 345 -358zM667 330c0 167 -55 313 -227 313c-156 0 -239 -120 -239 -298c0 -141 51 -304 237 -304c136 0 229 93 229 289z" />
    <glyph glyph-name="Uacute" unicode="&#xda;" horiz-adv-x="805" 
d="M542 874l-203 -150l-35 37l176 177zM787 635c-45 0 -85 -9 -85 -76v-322c0 -186 -143 -251 -299 -251c-170 0 -300 66 -300 229v351c0 64 -33 69 -78 69v48c22 0 85 -2 135 -2s111 2 134 2v-48c-45 0 -79 -5 -79 -69v-307c0 -144 89 -196 209 -196c140 0 207 60 207 196
v300c0 67 -40 76 -85 76v48c30 0 70 -2 120 -2s91 2 121 2v-48z" />
    <glyph glyph-name="Ucircumflex" unicode="&#xdb;" horiz-adv-x="805" 
d="M616 757l-36 -35l-143 111h-33l-140 -110l-34 34l153 153h81zM787 635c-45 0 -85 -9 -85 -76v-322c0 -186 -143 -251 -299 -251c-170 0 -300 66 -300 229v351c0 64 -33 69 -78 69v48c22 0 85 -2 135 -2s111 2 134 2v-48c-45 0 -79 -5 -79 -69v-307
c0 -144 89 -196 209 -196c140 0 207 60 207 196v300c0 67 -40 76 -85 76v48c30 0 70 -2 120 -2s91 2 121 2v-48z" />
    <glyph glyph-name="Ugrave" unicode="&#xd9;" horiz-adv-x="805" 
d="M543 761l-36 -37l-203 150l63 64zM787 635c-45 0 -85 -9 -85 -76v-322c0 -186 -143 -251 -299 -251c-170 0 -300 66 -300 229v351c0 64 -33 69 -78 69v48c22 0 85 -2 135 -2s111 2 134 2v-48c-45 0 -79 -5 -79 -69v-307c0 -144 89 -196 209 -196c140 0 207 60 207 196
v300c0 67 -40 76 -85 76v48c30 0 70 -2 120 -2s91 2 121 2v-48z" />
    <glyph glyph-name="dotlessi" unicode="&#x131;" horiz-adv-x="305" 
d="M285 0c-30 0 -75 2 -125 2s-100 -2 -124 -2v48c41 0 71 4 71 64v272c-36 7 -55 14 -85 24v45c43 5 112 24 146 38h46v-379c0 -60 33 -64 71 -64v-48z" />
    <glyph glyph-name="circumflex" unicode="&#x2c6;" horiz-adv-x="487" 
d="M436 587l-36 -35l-143 111h-33l-140 -110l-34 34l153 153h81z" />
    <glyph glyph-name="tilde" unicode="&#x2dc;" horiz-adv-x="551" 
d="M430 658c-36 -48 -76 -73 -129 -73c-52 0 -93 32 -137 32c-26 0 -50 -13 -71 -41l-32 34c38 49 88 82 144 82c42 0 100 -36 140 -36c25 0 35 13 52 33z" />
    <glyph glyph-name="macron" unicode="&#xaf;" horiz-adv-x="521" 
d="M410 614h-296v76h296v-76z" />
    <glyph glyph-name="breve" unicode="&#x2d8;" horiz-adv-x="487" 
d="M423 691c-40 -74 -114 -129 -183 -129c-71 0 -142 55 -181 129l30 31c41 -48 91 -81 151 -81c68 0 113 32 153 81z" />
    <glyph glyph-name="dotaccent" unicode="&#x2d9;" horiz-adv-x="313" 
d="M229 650c0 -41 -30 -67 -73 -67c-45 0 -71 29 -71 67c0 39 27 66 72 66c44 0 72 -26 72 -66z" />
    <glyph glyph-name="ring" unicode="&#x2da;" horiz-adv-x="473" 
d="M324 668c0 -64 -65 -97 -114 -97c-40 0 -115 17 -115 97c0 65 58 100 115 100c52 0 114 -25 114 -100zM275 669c0 37 -29 62 -66 62c-39 0 -65 -23 -65 -60s26 -63 66 -63c41 0 65 23 65 61z" />
    <glyph glyph-name="cedilla" unicode="&#xb8;" horiz-adv-x="472" 
d="M378 -123c0 -52 -66 -109 -128 -109c-30 0 -65 7 -83 27l43 51c44 -28 117 -28 117 9c0 35 -76 48 -132 57v45l39 41l45 -1l-26 -33c74 -13 125 -36 125 -87z" />
    <glyph glyph-name="hungarumlaut" unicode="&#x2dd;" horiz-adv-x="707" 
d="M625 704l-203 -150l-35 37l176 177zM405 704l-203 -150l-35 37l176 177z" />
    <glyph glyph-name="ogonek" unicode="&#x2db;" horiz-adv-x="313" 
d="M277 -176c-9 -11 -43 -49 -110 -49c-76 0 -116 48 -116 105c0 70 55 118 96 134l33 -23c-13 -8 -37 -31 -37 -76c0 -57 35 -74 64 -74c25 0 43 10 54 21z" />
    <glyph glyph-name="caron" unicode="&#x2c7;" horiz-adv-x="487" 
d="M436 690l-153 -153h-81l-153 153l37 35l143 -112h33l140 111z" />
    </font>
</defs>
</svg>
