<?xml version="1.0" standalone="no"?>
<!DOCTYPE svg PUBLIC "-//W3C//DTD SVG 1.1//EN" "http://www.w3.org/Graphics/SVG/1.1/DTD/svg11.dtd" >
<svg xmlns="http://www.w3.org/2000/svg" xmlns:xlink="http://www.w3.org/1999/xlink" version="1.1">
<metadata>
Created by FontForge 20190801 at Fri Nov  4 22:00:44 2005
 By Jimmy Wärting
Version 1.1/ Generated on 24-01-98/ Copr.1998 by Dutch Type Library
</metadata>
<defs>
<font id="DTLDocumenta-SansST" horiz-adv-x="500" >
  <font-face 
    font-family="DTLDocumentaSansST"
    font-weight="400"
    font-stretch="normal"
    units-per-em="1000"
    panose-1="2 0 8 3 4 0 0 2 0 3"
    ascent="766"
    descent="-234"
    x-height="471"
    cap-height="683"
    bbox="-267 -249 1167 952"
    underline-thickness="20"
    underline-position="-133"
    stemh="71"
    stemv="79"
    unicode-range="U+0020-FB02"
  />
<missing-glyph 
 />
    <glyph glyph-name=".notdef" 
 />
    <glyph glyph-name="space" unicode=" " horiz-adv-x="200" 
 />
    <glyph glyph-name="exclam" unicode="!" horiz-adv-x="248" 
d="M169 527c0 -123 -10 -331 -10 -331h-70s-10 208 -10 331c0 125 -6 166 46 166s44 -41 44 -166zM180 48c0 -31 -24 -52 -56 -52c-30 0 -56 21 -56 52s26 53 56 53c32 0 56 -22 56 -53z" />
    <glyph glyph-name="quotedbl" unicode="&#x22;" horiz-adv-x="372" 
d="M321 713c0 -39 -9 -133 -19 -189h-53c-10 55 -18 158 -18 189c0 32 7 54 45 54c42 0 45 -26 45 -54zM141 713c0 -39 -9 -133 -19 -189h-53c-10 55 -18 158 -18 189c0 32 7 54 45 54c42 0 45 -26 45 -54z" />
    <glyph glyph-name="numbersign" unicode="#" horiz-adv-x="719" 
d="M676 488l-6 -60h-170l-16 -154h170l-6 -60h-170l-23 -214h-64l23 214h-140l-23 -214h-64l23 214h-167l6 60h167l16 154h-167l6 60h167l21 195h64l-21 -195h140l21 195h64l-21 -195h170zM436 428h-140l-16 -154h140z" />
    <glyph glyph-name="dollar" unicode="$" horiz-adv-x="597" 
d="M508 187c0 -105 -71 -170 -179 -186v-95h-63v93c-105 1 -178 43 -178 43v78s82 -54 177 -54h1v254c-85 35 -173 87 -173 194c0 101 78 159 173 165v87h63v-86c88 -5 135 -33 135 -33v-73s-57 32 -135 38v-232c87 -39 179 -81 179 -193zM266 407v205
c-57 -3 -96 -34 -96 -90c0 -61 44 -91 96 -115zM429 178c0 62 -46 93 -100 117v-227c65 10 100 44 100 110z" />
    <glyph glyph-name="percent" horiz-adv-x="810" 
d="M380 570c0 -108 -72 -176 -168 -176c-104 0 -167 71 -167 171c0 104 69 172 170 172c98 0 165 -65 165 -167zM674 733l-478 -833l-57 34l477 836zM765 99c0 -108 -72 -176 -168 -176c-104 0 -167 71 -167 171c0 104 69 172 170 172c98 0 165 -65 165 -167zM310 563
c0 68 -34 115 -96 115c-74 0 -101 -60 -101 -112c0 -71 40 -113 99 -113c72 0 98 57 98 110zM695 92c0 68 -34 115 -96 115c-74 0 -101 -60 -101 -112c0 -71 40 -113 99 -113c72 0 98 57 98 110z" />
    <glyph glyph-name="ampersand" unicode="&#x26;" horiz-adv-x="865" 
d="M863 5c0 0 -20 -13 -61 -13c-33 0 -77 14 -134 44c-43 22 -92 52 -148 87c-61 -84 -145 -134 -256 -134c-115 0 -215 57 -215 169c0 95 66 151 130 199c-75 62 -103 110 -103 182c0 76 61 156 189 156c111 0 180 -62 180 -137c0 -87 -53 -136 -137 -193
c0 0 123 -88 191 -129c42 100 43 222 43 222h154v-74l-81 1s-14 -108 -53 -189c60 -37 108 -65 144 -85c74 -38 103 -44 121 -44c19 0 29 3 29 3zM360 540c0 50 -38 85 -96 85c-63 0 -107 -27 -107 -84c0 -50 35 -88 95 -134c54 32 108 73 108 133zM457 164
c-87 55 -224 152 -224 152c-47 -31 -98 -79 -98 -150s69 -107 141 -107c120 0 181 105 181 105z" />
    <glyph glyph-name="quotesingle" unicode="'" horiz-adv-x="192" 
d="M141 713c0 -39 -9 -133 -19 -189h-53c-10 55 -18 158 -18 189c0 32 7 54 45 54c42 0 45 -26 45 -54z" />
    <glyph glyph-name="parenleft" unicode="(" horiz-adv-x="372" 
d="M355 -188l-48 -54s-233 163 -233 508c0 346 233 508 233 508l48 -54s-201 -153 -201 -453c0 -302 201 -455 201 -455z" />
    <glyph glyph-name="parenright" unicode=")" horiz-adv-x="372" 
d="M306 266c0 -345 -233 -508 -233 -508l-48 54s201 153 201 455c0 300 -201 453 -201 453l48 54s233 -162 233 -508z" />
    <glyph glyph-name="asterisk" unicode="*" horiz-adv-x="472" 
d="M434 594l-153 -36l102 -117l-65 -49l-82 134l-79 -134l-67 47l102 119l-152 34l25 78l144 -60l-14 156h82l-13 -156l144 61z" />
    <glyph glyph-name="plus" unicode="+" horiz-adv-x="549" 
d="M499 203h-189v-190h-70v190h-189v68h189v190h70v-190h189v-68z" />
    <glyph glyph-name="comma" unicode="," horiz-adv-x="190" 
d="M162 39c0 -85 -75 -161 -156 -186l-30 46s39 16 75 46c26 22 33 46 33 46c-33 10 -45 30 -45 55c0 35 28 57 59 57c34 0 64 -25 64 -64z" />
    <glyph glyph-name="hyphen" unicode="-" horiz-adv-x="320" 
d="M275 217h-230v70h230v-70z" />
    <glyph glyph-name="period" unicode="." horiz-adv-x="190" 
d="M155 48c0 -33 -26 -56 -60 -56c-32 0 -60 23 -60 56s28 57 60 57c34 0 60 -24 60 -57z" />
    <glyph glyph-name="slash" unicode="/" horiz-adv-x="557" 
d="M570 729l-474 -909l-63 37l474 909z" />
    <glyph glyph-name="zero" unicode="0" horiz-adv-x="581" 
d="M525 238c0 -169 -117 -251 -240 -251c-128 0 -229 88 -229 246c0 166 105 253 236 253c135 0 233 -82 233 -248zM437 238c0 86 -36 175 -147 175c-109 0 -149 -88 -149 -176c0 -97 44 -177 150 -177c109 0 146 82 146 178z" />
    <glyph glyph-name="one" unicode="1" horiz-adv-x="273" 
d="M197 0h-80v381c-50 -8 -103 -46 -103 -46l-11 81s70 48 194 70v-486z" />
    <glyph glyph-name="two" unicode="2" horiz-adv-x="436" 
d="M429 0h-391v51c24 20 81 62 132 111c64 61 103 104 103 158c0 55 -30 89 -84 89c-79 0 -108 -87 -111 -97l-50 53c4 16 47 121 172 121c99 0 161 -55 161 -144c0 -62 -32 -116 -72 -158c-36 -38 -77 -76 -122 -113h262v-71z" />
    <glyph glyph-name="three" unicode="3" horiz-adv-x="411" 
d="M383 -21c0 -107 -85 -183 -212 -183c-120 0 -174 69 -174 69l26 69s54 -70 147 -70c59 0 128 28 128 111c0 102 -127 136 -178 145v48c64 25 155 84 155 158c0 58 -50 84 -99 84c-85 0 -116 -86 -116 -86l-48 51c4 10 43 111 181 111c99 0 170 -58 170 -140
c0 -108 -109 -172 -126 -184c35 -11 146 -55 146 -183z" />
    <glyph glyph-name="four" unicode="4" horiz-adv-x="519" 
d="M519 29h-130v-229h-78v229h-296v56l324 392h50v-376h130v-72zM311 101v231l-191 -231h191z" />
    <glyph glyph-name="five" unicode="5" horiz-adv-x="442" 
d="M410 -1c0 -146 -103 -203 -216 -203c-102 0 -161 56 -161 56l12 75s68 -61 151 -61c62 0 129 28 129 121c0 101 -89 164 -247 179v311h323v-75h-248v-171c63 -5 257 -55 257 -232z" />
    <glyph glyph-name="six" unicode="6" horiz-adv-x="518" 
d="M473 203c0 -141 -93 -216 -200 -216c-150 0 -214 129 -214 317c0 210 123 388 393 388l8 -70c-175 0 -288 -82 -312 -251c28 24 70 49 129 49c124 0 196 -89 196 -217zM387 191c0 118 -64 155 -127 155c-84 0 -118 -50 -118 -50c0 -107 21 -240 131 -240
c63 0 114 40 114 135z" />
    <glyph glyph-name="seven" unicode="7" horiz-adv-x="424" 
d="M416 426l-358 -636l-61 44l317 558h-299v85h401v-51z" />
    <glyph glyph-name="eight" unicode="8" horiz-adv-x="527" 
d="M482 162c0 -94 -79 -171 -215 -171c-144 0 -222 60 -222 165c0 96 88 155 149 193c-66 43 -125 91 -125 177c0 103 90 166 202 166s203 -55 203 -149c0 -92 -76 -141 -146 -183c76 -48 154 -98 154 -198zM388 529c0 63 -61 93 -117 93c-70 0 -120 -36 -120 -93
c0 -66 71 -102 117 -131c45 25 120 70 120 131zM398 152c0 74 -73 117 -145 159c-53 -27 -125 -79 -125 -146c0 -72 59 -107 142 -107c81 0 128 45 128 94z" />
    <glyph glyph-name="nine" unicode="9" horiz-adv-x="518" 
d="M460 169c0 -212 -116 -373 -396 -373l-8 70c175 0 291 74 313 225c0 0 -47 -46 -130 -46c-107 0 -194 87 -194 215c0 146 95 226 204 226c151 0 211 -132 211 -317zM374 167v21c0 97 -27 229 -130 229c-63 0 -115 -50 -115 -145c0 -116 68 -155 133 -155
c76 0 112 50 112 50z" />
    <glyph glyph-name="colon" unicode=":" horiz-adv-x="210" 
d="M165 414c0 -33 -26 -56 -60 -56c-32 0 -60 23 -60 56s28 57 60 57c34 0 60 -24 60 -57zM165 48c0 -33 -26 -56 -60 -56c-32 0 -60 23 -60 56s28 57 60 57c34 0 60 -24 60 -57z" />
    <glyph glyph-name="semicolon" unicode=";" horiz-adv-x="210" 
d="M170 414c0 -33 -26 -56 -60 -56c-32 0 -60 23 -60 56s28 57 60 57c34 0 60 -24 60 -57zM172 39c0 -85 -75 -161 -156 -186l-30 46s39 16 75 46c26 22 33 46 33 46c-33 10 -45 30 -45 55c0 35 28 57 59 57c34 0 64 -25 64 -64z" />
    <glyph glyph-name="less" unicode="&#x3c;" horiz-adv-x="549" 
d="M499 13l-448 190v68l448 190v-73l-370 -151l370 -151v-73z" />
    <glyph glyph-name="equal" unicode="=" horiz-adv-x="549" 
d="M499 309h-448v68h448v-68zM499 97h-448v68h448v-68z" />
    <glyph glyph-name="greater" unicode="&#x3e;" horiz-adv-x="549" 
d="M499 203l-448 -190v73l370 151l-370 151v73l448 -190v-68z" />
    <glyph glyph-name="question" unicode="?" horiz-adv-x="422" 
d="M403 503c0 -126 -90 -172 -154 -198c-62 -25 -96 -31 -96 -61c0 -27 22 -68 22 -68l-68 -24s-32 67 -32 118c0 61 61 74 125 99c58 23 116 47 116 127c0 87 -56 119 -126 119c-72 0 -135 -57 -135 -57l-17 75s54 61 159 61c121 0 206 -70 206 -191zM207 48
c0 -31 -24 -52 -56 -52c-30 0 -56 21 -56 52s26 53 56 53c32 0 56 -22 56 -53z" />
    <glyph glyph-name="at" unicode="@" horiz-adv-x="867" 
d="M811 407c0 -191 -115 -258 -239 -258c-52 0 -86 11 -86 58c0 28 3 52 3 52s-61 -110 -151 -110c-47 0 -92 30 -92 118c0 125 71 254 207 254c67 0 101 -28 101 -28l17 24h54s-27 -66 -50 -145c-15 -50 -25 -104 -25 -128c0 -23 -1 -41 44 -41c71 0 141 60 141 191
c0 154 -105 238 -276 238c-195 0 -322 -130 -322 -321c0 -202 138 -259 286 -259c125 0 206 38 206 38v-69s-91 -34 -221 -34c-85 0 -183 17 -252 77c-59 51 -100 130 -100 255c0 264 197 383 402 383c219 0 353 -111 353 -295zM525 445c0 0 -23 23 -68 23
c-120 0 -143 -161 -143 -185c0 -11 -6 -74 39 -74c52 0 125 108 156 182c8 19 16 54 16 54z" />
    <glyph glyph-name="A" unicode="A" horiz-adv-x="698" 
d="M662 0h-92l-99 253h-249l-99 -253h-87l274 683h78zM441 328l-94 241l-95 -241h189z" />
    <glyph glyph-name="B" unicode="B" horiz-adv-x="585" 
d="M530 198c0 -121 -84 -200 -243 -200c-49 0 -196 2 -196 2v683s106 1 172 1c134 0 218 -56 218 -158c0 -124 -99 -155 -99 -155s148 -23 148 -173zM388 509c0 77 -51 109 -143 109c-31 0 -69 -2 -69 -2v-220s33 -3 77 -3c93 0 135 55 135 116zM435 194
c0 95 -77 130 -193 130c-32 0 -66 -1 -66 -1v-247s55 -5 103 -5c84 0 156 27 156 123z" />
    <glyph glyph-name="C" unicode="C" horiz-adv-x="666" 
d="M618 22c0 0 -76 -28 -202 -28c-229 0 -360 150 -360 351c0 219 127 347 355 347c146 0 204 -32 204 -32v-84s-70 38 -201 38c-141 0 -266 -63 -266 -259c0 -195 130 -280 286 -280c119 0 182 29 182 29z" />
    <glyph glyph-name="D" unicode="D" horiz-adv-x="758" 
d="M702 350c0 -108 -31 -193 -91 -255c-66 -67 -150 -100 -291 -100c-88 0 -229 5 -229 5v683s142 2 223 2c146 0 240 -31 309 -106c52 -55 79 -130 79 -229zM612 339c0 80 -23 140 -60 183c-57 66 -138 86 -241 86c-76 0 -135 -3 -135 -3v-526s66 -8 155 -8
c176 0 281 92 281 268z" />
    <glyph glyph-name="E" unicode="E" horiz-adv-x="516" 
d="M488 0h-397v683h373v-81h-288v-215h278v-81h-278v-225h312v-81z" />
    <glyph glyph-name="F" unicode="F" horiz-adv-x="470" 
d="M454 602h-278v-235h268v-81h-268v-286h-85v683h363v-81z" />
    <glyph glyph-name="G" unicode="G" horiz-adv-x="722" 
d="M639 20c-58 -11 -109 -26 -214 -26c-205 0 -369 113 -369 351c0 140 56 233 130 286c64 46 143 61 237 61c136 0 215 -34 215 -34v-86s-98 40 -208 40c-96 0 -164 -16 -216 -70c-40 -42 -66 -104 -66 -187c0 -197 115 -286 290 -286c71 0 116 10 116 10v214h85v-273z" />
    <glyph glyph-name="H" unicode="H" horiz-adv-x="720" 
d="M629 0h-85v313h-368v-313h-85v683h85v-287h368v287h85v-683z" />
    <glyph glyph-name="I" unicode="I" horiz-adv-x="267" 
d="M176 0h-85v683h85v-683z" />
    <glyph glyph-name="J" unicode="J" horiz-adv-x="280" 
d="M192 166c0 -146 -20 -207 -59 -257c-32 -41 -91 -84 -130 -96l-39 66s33 17 63 42c50 41 78 92 80 227v535h85v-517z" />
    <glyph glyph-name="K" unicode="K" horiz-adv-x="615" 
d="M613 0h-119l-318 350l284 333h115l-293 -327zM176 0h-85v683h85v-683z" />
    <glyph glyph-name="L" unicode="L" horiz-adv-x="502" 
d="M478 0h-387v683h85v-601h302v-82z" />
    <glyph glyph-name="M" unicode="M" horiz-adv-x="850" 
d="M759 0h-82v490l-212 -490h-83l-212 491v-491h-79v683h95l242 -567l243 567h88v-683z" />
    <glyph glyph-name="N" unicode="N" horiz-adv-x="729" 
d="M638 0h-79l-388 532v-532h-80v683h80l388 -534v534h79v-683z" />
    <glyph glyph-name="O" unicode="O" horiz-adv-x="801" 
d="M745 342c0 -211 -131 -353 -349 -353c-212 0 -340 146 -340 355c0 216 143 351 352 351c220 0 337 -153 337 -353zM654 343c0 157 -90 275 -251 275c-169 0 -255 -118 -255 -273c0 -151 83 -280 248 -280c175 0 258 121 258 278z" />
    <glyph glyph-name="P" unicode="P" horiz-adv-x="522" 
d="M507 485c0 -147 -107 -214 -220 -214c-49 0 -83 10 -83 10v74s28 -12 71 -12c75 0 140 40 140 136c0 40 -12 72 -35 95c-28 29 -71 41 -134 41c-42 0 -70 -2 -70 -2v-613h-85v683s106 1 173 1c96 0 157 -24 195 -64c32 -35 48 -81 48 -135z" />
    <glyph glyph-name="Q" unicode="Q" horiz-adv-x="801" 
d="M876 -165c0 0 -28 -27 -87 -27c-91 0 -165 38 -233 81c-59 37 -113 78 -171 100c-85 2 -171 34 -227 88c-65 63 -102 156 -102 267c0 216 143 351 352 351c220 0 337 -153 337 -353c0 -169 -78 -291 -221 -336c41 -24 81 -47 118 -66c63 -33 113 -51 151 -51
c46 0 70 14 70 14zM654 343c0 157 -90 275 -251 275c-169 0 -255 -118 -255 -273c0 -151 83 -282 248 -282c182 0 258 123 258 280z" />
    <glyph glyph-name="R" unicode="R" horiz-adv-x="654" 
d="M658 1c0 0 -21 -4 -43 -4c-72 0 -127 40 -190 116c-54 65 -117 155 -117 155s-13 -1 -21 -1c-28 0 -111 3 -111 3v-270h-85v683s126 1 193 1c96 0 158 -24 196 -64c32 -35 48 -81 48 -135c0 -108 -66 -169 -132 -196c23 -32 55 -76 95 -119c82 -88 111 -102 149 -102
c10 0 18 1 18 1v-68zM436 479c0 40 -12 72 -35 95c-28 29 -72 41 -135 41c-42 0 -90 -2 -90 -2v-271s68 -3 98 -3c53 0 90 9 119 37c24 23 43 57 43 103z" />
    <glyph glyph-name="S" unicode="S" horiz-adv-x="534" 
d="M478 187c0 -125 -107 -192 -241 -192c-120 0 -186 45 -186 45v85s81 -55 181 -55c85 0 159 25 159 108c0 85 -87 110 -163 141c-79 32 -169 77 -169 194s88 172 200 172c120 0 177 -34 177 -34v-82s-79 41 -171 41c-73 0 -121 -25 -121 -94c0 -71 81 -99 152 -130
c91 -39 182 -74 182 -199z" />
    <glyph glyph-name="T" unicode="T" horiz-adv-x="568" 
d="M566 602h-242v-602h-85v602h-237v81h564v-81z" />
    <glyph glyph-name="U" unicode="U" horiz-adv-x="723" 
d="M639 399c0 -46 -1 -127 -2 -162c-7 -188 -138 -246 -276 -246c-148 0 -266 54 -276 219c-2 37 -2 118 -2 203c0 97 3 270 3 270h85s-2 -162 -2 -243c0 -58 1 -135 2 -201c2 -118 71 -173 190 -173c125 0 190 50 196 187c1 23 1 81 1 147c0 148 -1 283 -1 283h80
s2 -211 2 -284z" />
    <glyph glyph-name="V" unicode="V" horiz-adv-x="606" 
d="M604 683l-262 -683h-78l-262 683h98l207 -560l207 560h90z" />
    <glyph glyph-name="W" unicode="W" horiz-adv-x="942" 
d="M940 683l-251 -683h-82l-139 372l-141 -372h-80l-245 683h95l197 -558l133 358l-75 200h95l207 -558l197 558h89z" />
    <glyph glyph-name="X" unicode="X" horiz-adv-x="619" 
d="M603 0h-102l-193 292l-192 -292h-100l247 365l-215 318h102l161 -242l163 242h99l-217 -315z" />
    <glyph glyph-name="Y" unicode="Y" horiz-adv-x="587" 
d="M585 683l-252 -376v-307h-85v313l-246 370h102l193 -295l192 295h96z" />
    <glyph glyph-name="Z" unicode="Z" horiz-adv-x="631" 
d="M595 0h-522v80l357 524h-357v79h459v-79l-357 -524h420v-80z" />
    <glyph glyph-name="bracketleft" unicode="[" horiz-adv-x="352" 
d="M279 -234h-177v1000h177v-71h-99v-858h99v-71z" />
    <glyph glyph-name="backslash" unicode="\" horiz-adv-x="557" 
d="M524 -143l-63 -37l-474 909l63 37z" />
    <glyph glyph-name="bracketright" unicode="]" horiz-adv-x="352" 
d="M258 -234h-177v71h99v858h-99v71h177v-1000z" />
    <glyph glyph-name="asciicircum" unicode="^" horiz-adv-x="282" 
d="M339 332h-82l-116 286l-116 -286h-82l160 363h76z" />
    <glyph glyph-name="underscore" unicode="_" 
d="M500 -166h-500v66h500v-66z" />
    <glyph glyph-name="grave" unicode="`" 
d="M370 571l-39 -41l-201 152l57 56z" />
    <glyph glyph-name="a" unicode="a" horiz-adv-x="450" 
d="M435 59l-15 -59s-18 -6 -50 -6c-57 0 -74 51 -74 51s-43 -54 -122 -54c-73 0 -140 41 -140 133c0 125 152 141 198 147c33 4 55 4 55 4v22c0 74 -20 108 -96 108c-70 0 -123 -54 -123 -54l-13 73s58 53 154 53s155 -45 155 -145c0 -33 -2 -86 -2 -188c0 -52 4 -87 47 -87
c13 0 26 2 26 2zM287 216c0 0 -32 1 -76 -7c-45 -8 -97 -30 -97 -80c0 -51 40 -73 81 -73c60 0 91 45 91 45z" />
    <glyph glyph-name="b" unicode="b" horiz-adv-x="548" 
d="M503 255c0 -184 -121 -261 -241 -261c-117 0 -182 55 -182 55v717h79v-341c14 11 58 51 144 51c108 0 200 -73 200 -221zM417 237c0 98 -47 170 -140 170c-69 0 -109 -35 -118 -44v-273s45 -32 106 -32c100 0 152 75 152 179z" />
    <glyph glyph-name="c" unicode="c" horiz-adv-x="465" 
d="M437 417l-36 -70s-58 59 -142 59c-64 0 -131 -47 -131 -167c0 -114 67 -178 154 -178c90 0 145 47 145 47v-74s-56 -43 -167 -43c-114 0 -215 86 -215 250c0 153 108 236 225 236c112 0 167 -60 167 -60z" />
    <glyph glyph-name="d" unicode="d" horiz-adv-x="547" 
d="M460 0h-79v44s-46 -51 -142 -51c-92 0 -194 72 -194 228c0 182 121 254 232 254c72 0 104 -20 104 -20v311h79v-766zM381 104v274s-33 30 -104 30c-92 0 -148 -71 -148 -179c0 -97 53 -169 138 -169c79 0 114 44 114 44z" />
    <glyph glyph-name="e" unicode="e" horiz-adv-x="491" 
d="M438 231h-312c0 -99 66 -169 164 -169c90 0 147 48 147 48v-76s-56 -43 -167 -43c-128 0 -225 87 -225 250c0 150 93 236 212 236c120 0 181 -98 181 -215v-31zM347 295c-2 75 -37 116 -100 116c-67 0 -109 -42 -115 -116h215z" />
    <glyph glyph-name="f" unicode="f" horiz-adv-x="286" 
d="M357 752l-6 -78s-34 18 -77 18c-24 0 -43 -5 -60 -19c-30 -24 -41 -67 -41 -128v-85h117v-69h-117v-391h-79v391h-80v69h80v86c0 159 77 221 183 221c50 0 80 -15 80 -15z" />
    <glyph glyph-name="g" unicode="g" horiz-adv-x="505" 
d="M507 379h-85s17 -29 17 -75c0 -103 -85 -162 -189 -162c-48 0 -71 10 -71 10s-54 -14 -54 -47c0 -34 56 -37 156 -43c118 -7 201 -27 201 -122c0 -109 -107 -180 -251 -180c-128 0 -211 49 -211 131c0 87 100 123 100 123s-73 15 -73 75c0 47 45 75 78 88
c0 0 -67 36 -67 126c0 91 60 174 188 174c84 0 120 -30 120 -30h141v-68zM358 307c0 62 -39 106 -107 106c-72 0 -112 -44 -112 -107c0 -64 45 -102 110 -102c64 0 109 37 109 103zM405 -79c0 55 -59 65 -125 69c-40 2 -88 6 -88 6c-19 -3 -95 -31 -95 -92
c0 -60 76 -80 148 -80c80 0 160 37 160 97z" />
    <glyph glyph-name="h" unicode="h" horiz-adv-x="554" 
d="M472 0h-79v160c0 40 0 93 -1 116c-2 68 -19 129 -105 129c-72 0 -112 -35 -121 -46v-359h-79v766h79v-344s59 55 149 55c156 0 156 -147 157 -187v-290z" />
    <glyph glyph-name="i" unicode="i" horiz-adv-x="253" 
d="M181 639c0 -31 -26 -51 -54 -51s-54 20 -54 51s26 52 54 52s54 -21 54 -52zM166 0h-79v471h79v-471z" />
    <glyph glyph-name="j" unicode="j" horiz-adv-x="253" 
d="M181 639c0 -31 -26 -51 -54 -51s-54 20 -54 51s26 52 54 52s54 -21 54 -52zM166 -14c-1 -89 -16 -142 -54 -181c-26 -27 -68 -44 -111 -44l-12 65s33 1 55 19c32 25 42 70 43 142v484h79v-485z" />
    <glyph glyph-name="k" unicode="k" horiz-adv-x="481" 
d="M166 0h-79v766h79v-766zM479 0h-107l-206 249l203 222h105l-206 -219z" />
    <glyph glyph-name="l" unicode="l" horiz-adv-x="253" 
d="M166 0h-79v766h79v-766z" />
    <glyph glyph-name="m" unicode="m" horiz-adv-x="858" 
d="M776 0h-79v160c0 40 0 94 -1 116c-2 68 -19 129 -105 129c-65 0 -105 -30 -125 -52c0 0 6 -30 6 -63v-290h-79v160c0 40 0 91 -1 116c-2 68 -19 129 -105 129c-72 0 -110 -35 -121 -48v-357h-79v471h79v-51s55 57 149 57c72 0 111 -32 132 -70c20 19 80 70 172 70
c156 0 156 -147 157 -187v-290z" />
    <glyph glyph-name="n" unicode="n" horiz-adv-x="554" 
d="M472 0h-79v160c0 40 0 97 -1 116c-2 68 -19 129 -105 129c-72 0 -110 -35 -121 -48v-357h-79v471h79v-51s55 57 149 57c156 0 156 -147 157 -187v-290z" />
    <glyph glyph-name="o" unicode="o" horiz-adv-x="544" 
d="M499 236c0 -164 -111 -245 -232 -245c-129 0 -222 87 -222 240c0 161 106 246 229 246c139 0 225 -81 225 -241zM414 236c0 83 -34 171 -142 171c-106 0 -144 -87 -144 -172c0 -94 42 -174 145 -174c106 0 141 85 141 175z" />
    <glyph glyph-name="p" unicode="p" horiz-adv-x="555" 
d="M510 253c0 -184 -123 -259 -243 -259c-62 0 -101 19 -101 19v-247h-79v705h79v-48s48 53 147 53c104 0 197 -79 197 -223zM424 237c0 98 -48 168 -141 168c-85 0 -117 -46 -117 -46v-270s29 -30 106 -30c100 0 152 74 152 178z" />
    <glyph glyph-name="q" unicode="q" horiz-adv-x="548" 
d="M461 -234h-79v270s-50 -43 -136 -43c-95 0 -201 68 -201 228c0 185 126 254 238 254c64 0 99 -20 99 -20v16h79v-705zM382 100v279s-35 30 -102 30c-94 0 -150 -69 -150 -180c0 -99 50 -168 138 -168c78 0 114 39 114 39z" />
    <glyph glyph-name="r" unicode="r" horiz-adv-x="353" 
d="M351 469l-5 -79s-24 11 -66 11c-83 0 -107 -49 -114 -61v-340h-79v471h79v-63c15 22 47 71 125 71c39 0 60 -10 60 -10z" />
    <glyph glyph-name="s" unicode="s" horiz-adv-x="404" 
d="M367 134c0 -114 -113 -140 -175 -140c-99 0 -146 24 -146 24v75s70 -30 134 -30c69 0 106 21 106 62c0 46 -44 58 -111 82c-76 28 -123 61 -123 136c0 98 82 134 169 134c73 0 114 -20 114 -20l-3 -73s-49 25 -117 25c-55 0 -84 -18 -84 -56s22 -57 96 -80
c70 -22 140 -52 140 -139z" />
    <glyph glyph-name="t" unicode="t" horiz-adv-x="348" 
d="M330 22c0 0 -39 -22 -99 -22c-114 0 -137 61 -137 149c0 40 4 242 4 242h-65v69h67l1 93l79 11l-2 -104h143v-69h-145s-3 -140 -3 -230c0 -71 23 -89 73 -89c44 0 84 22 84 22v-72z" />
    <glyph glyph-name="u" unicode="u" horiz-adv-x="551" 
d="M464 0h-79v53s-54 -58 -148 -58c-150 0 -154 125 -155 190v286h79v-268c1 -88 21 -139 105 -139c67 0 108 37 119 50v357h79v-471z" />
    <glyph glyph-name="v" unicode="v" horiz-adv-x="452" 
d="M436 471l-170 -471h-80l-170 471h87l127 -366l124 366h82z" />
    <glyph glyph-name="w" unicode="w" horiz-adv-x="713" 
d="M695 471l-140 -471h-84l-114 363l-114 -363h-83l-140 471h87l99 -364l112 364h85l115 -364l96 364h81z" />
    <glyph glyph-name="x" unicode="x" horiz-adv-x="427" 
d="M421 0h-95l-115 177l-119 -177h-86l165 237l-159 234h95l109 -167l113 167h86l-160 -227z" />
    <glyph glyph-name="y" unicode="y" horiz-adv-x="456" 
d="M441 471l-176 -482c-13 -37 -33 -91 -52 -132c-33 -71 -72 -96 -132 -96c-47 0 -84 22 -84 22l14 71s38 -20 73 -20c34 0 52 22 77 85c10 24 29 79 29 79l-176 473h89l130 -367l125 367h83z" />
    <glyph glyph-name="z" unicode="z" horiz-adv-x="459" 
d="M425 0h-386v69l274 333h-272v69h374v-69l-277 -333h287v-69z" />
    <glyph glyph-name="braceleft" unicode="{" horiz-adv-x="382" 
d="M351 -165l-2 -68s-14 -1 -21 -1c-163 0 -186 49 -186 264c0 164 -15 202 -99 202v67c84 0 98 38 98 202c0 215 23 265 186 265c7 0 21 -1 21 -1l2 -68c-47 0 -75 0 -96 -16c-27 -20 -34 -62 -34 -177c0 -149 -16 -170 -41 -203c-25 -28 -52 -36 -52 -36s28 -7 53 -35
c25 -33 41 -54 41 -203c0 -115 7 -156 34 -176c21 -16 49 -16 96 -16z" />
    <glyph glyph-name="bar" unicode="|" horiz-adv-x="282" 
d="M180 -234h-78v917h78v-917z" />
    <glyph glyph-name="braceright" unicode="}" horiz-adv-x="382" 
d="M347 233c-84 0 -98 -38 -98 -202c0 -215 -23 -265 -186 -265c-7 0 -21 1 -21 1l-2 68c47 0 75 0 96 16c27 20 34 62 34 177c0 149 16 170 41 203c25 28 52 36 52 36s-28 7 -53 35c-25 33 -41 54 -41 203c0 115 -7 156 -34 176c-21 16 -49 16 -96 16l2 68s14 1 21 1
c163 0 186 -49 186 -264c0 -164 15 -202 99 -202v-67z" />
    <glyph glyph-name="asciitilde" unicode="~" horiz-adv-x="549" 
d="M511 239c0 0 -31 -59 -132 -59c-67 0 -163 44 -219 44c-72 0 -98 -48 -98 -48l-23 59s29 59 134 59c67 0 158 -44 217 -44c74 0 98 48 98 48z" />
    <glyph glyph-name="Adieresis" unicode="&#xc4;" horiz-adv-x="698" 
d="M497 780c0 -27 -22 -48 -49 -48s-49 21 -49 48s22 49 49 49s49 -22 49 -49zM299 780c0 -27 -22 -48 -49 -48s-49 21 -49 48s22 49 49 49s49 -22 49 -49zM662 0h-92l-99 253h-249l-99 -253h-87l274 683h78zM441 328l-94 241l-95 -241h189z" />
    <glyph glyph-name="Aring" unicode="&#xc5;" horiz-adv-x="698" 
d="M467 844c0 -69 -52 -108 -116 -108c-61 0 -119 31 -119 106c0 72 57 110 117 110c51 0 118 -28 118 -108zM662 0h-92l-99 253h-249l-99 -253h-87l274 683h78zM410 843c0 36 -29 59 -61 59c-36 0 -60 -21 -60 -57s25 -60 61 -60s60 22 60 58zM441 328l-94 241l-95 -241
h189z" />
    <glyph glyph-name="Ccedilla" unicode="&#xc7;" horiz-adv-x="666" 
d="M618 22c0 0 -76 -28 -202 -28h-22l-20 -41c71 -15 111 -48 111 -103c0 -59 -46 -99 -116 -99c-61 0 -90 20 -90 20l9 54s35 -21 78 -21c34 0 58 11 58 35c0 39 -53 54 -118 65v39l28 58c-177 32 -278 169 -278 344c0 219 127 347 355 347c146 0 204 -32 204 -32v-84
s-70 38 -201 38c-141 0 -266 -63 -266 -259c0 -195 130 -280 286 -280c119 0 182 29 182 29z" />
    <glyph glyph-name="Eacute" unicode="&#xc9;" horiz-adv-x="516" 
d="M446 882l-201 -152l-39 41l183 167zM488 0h-397v683h373v-81h-288v-215h278v-81h-278v-225h312v-81z" />
    <glyph glyph-name="Ntilde" unicode="&#xd1;" horiz-adv-x="729" 
d="M553 803c0 0 -42 -58 -105 -58c-48 0 -83 43 -123 43c-32 0 -54 -11 -75 -40l-26 55s40 58 105 58c52 0 84 -43 123 -43c47 0 75 40 75 40zM638 0h-79l-388 532v-532h-80v683h80l388 -534v534h79v-683z" />
    <glyph glyph-name="Odieresis" unicode="&#xd6;" horiz-adv-x="801" 
d="M548 780c0 -27 -22 -48 -49 -48s-49 21 -49 48s22 49 49 49s49 -22 49 -49zM350 780c0 -27 -22 -48 -49 -48s-49 21 -49 48s22 49 49 49s49 -22 49 -49zM745 342c0 -211 -131 -353 -349 -353c-212 0 -340 146 -340 355c0 216 143 351 352 351c220 0 337 -153 337 -353z
M654 343c0 157 -90 275 -251 275c-169 0 -255 -118 -255 -273c0 -151 83 -280 248 -280c175 0 258 121 258 278z" />
    <glyph glyph-name="Udieresis" unicode="&#xdc;" horiz-adv-x="723" 
d="M520 780c0 -27 -22 -48 -49 -48s-49 21 -49 48s22 49 49 49s49 -22 49 -49zM322 780c0 -27 -22 -48 -49 -48s-49 21 -49 48s22 49 49 49s49 -22 49 -49zM639 399c0 -46 -1 -127 -2 -162c-7 -188 -138 -246 -276 -246c-148 0 -266 54 -276 219c-2 37 -2 118 -2 203
c0 97 3 270 3 270h85s-2 -162 -2 -243c0 -58 1 -135 2 -201c2 -118 71 -173 190 -173c125 0 190 50 196 187c1 23 1 81 1 147c0 148 -1 283 -1 283h80s2 -211 2 -284z" />
    <glyph glyph-name="aacute" unicode="&#xe1;" horiz-adv-x="450" 
d="M379 682l-201 -152l-39 41l183 167zM435 59l-15 -59s-18 -6 -50 -6c-57 0 -74 51 -74 51s-43 -54 -122 -54c-73 0 -140 41 -140 133c0 125 152 141 198 147c33 4 55 4 55 4v22c0 74 -20 108 -96 108c-70 0 -123 -54 -123 -54l-13 73s58 53 154 53s155 -45 155 -145
c0 -33 -2 -86 -2 -188c0 -52 4 -87 47 -87c13 0 26 2 26 2zM287 216c0 0 -32 1 -76 -7c-45 -8 -97 -30 -97 -80c0 -51 40 -73 81 -73c60 0 91 45 91 45z" />
    <glyph glyph-name="agrave" unicode="&#xe0;" horiz-adv-x="450" 
d="M309 571l-39 -41l-201 152l57 56zM435 59l-15 -59s-18 -6 -50 -6c-57 0 -74 51 -74 51s-43 -54 -122 -54c-73 0 -140 41 -140 133c0 125 152 141 198 147c33 4 55 4 55 4v22c0 74 -20 108 -96 108c-70 0 -123 -54 -123 -54l-13 73s58 53 154 53s155 -45 155 -145
c0 -33 -2 -86 -2 -188c0 -52 4 -87 47 -87c13 0 26 2 26 2zM287 216c0 0 -32 1 -76 -7c-45 -8 -97 -30 -97 -80c0 -51 40 -73 81 -73c60 0 91 45 91 45z" />
    <glyph glyph-name="acircumflex" unicode="&#xe2;" horiz-adv-x="450" 
d="M383 551l-39 -41l-132 106l-131 -106l-39 41l140 136h62zM435 59l-15 -59s-18 -6 -50 -6c-57 0 -74 51 -74 51s-43 -54 -122 -54c-73 0 -140 41 -140 133c0 125 152 141 198 147c33 4 55 4 55 4v22c0 74 -20 108 -96 108c-70 0 -123 -54 -123 -54l-13 73s58 53 154 53
s155 -45 155 -145c0 -33 -2 -86 -2 -188c0 -52 4 -87 47 -87c13 0 26 2 26 2zM287 216c0 0 -32 1 -76 -7c-45 -8 -97 -30 -97 -80c0 -51 40 -73 81 -73c60 0 91 45 91 45z" />
    <glyph glyph-name="adieresis" unicode="&#xe4;" horiz-adv-x="450" 
d="M362 580c0 -27 -22 -48 -49 -48s-49 21 -49 48s22 49 49 49s49 -22 49 -49zM164 580c0 -27 -22 -48 -49 -48s-49 21 -49 48s22 49 49 49s49 -22 49 -49zM435 59l-15 -59s-18 -6 -50 -6c-57 0 -74 51 -74 51s-43 -54 -122 -54c-73 0 -140 41 -140 133
c0 125 152 141 198 147c33 4 55 4 55 4v22c0 74 -20 108 -96 108c-70 0 -123 -54 -123 -54l-13 73s58 53 154 53s155 -45 155 -145c0 -33 -2 -86 -2 -188c0 -52 4 -87 47 -87c13 0 26 2 26 2zM287 216c0 0 -32 1 -76 -7c-45 -8 -97 -30 -97 -80c0 -51 40 -73 81 -73
c60 0 91 45 91 45z" />
    <glyph glyph-name="atilde" unicode="&#xe3;" horiz-adv-x="450" 
d="M381 603c0 0 -42 -58 -105 -58c-48 0 -83 43 -123 43c-32 0 -54 -11 -75 -40l-26 55s40 58 105 58c52 0 84 -43 123 -43c47 0 75 40 75 40zM435 59l-15 -59s-18 -6 -50 -6c-57 0 -74 51 -74 51s-43 -54 -122 -54c-73 0 -140 41 -140 133c0 125 152 141 198 147
c33 4 55 4 55 4v22c0 74 -20 108 -96 108c-70 0 -123 -54 -123 -54l-13 73s58 53 154 53s155 -45 155 -145c0 -33 -2 -86 -2 -188c0 -52 4 -87 47 -87c13 0 26 2 26 2zM287 216c0 0 -32 1 -76 -7c-45 -8 -97 -30 -97 -80c0 -51 40 -73 81 -73c60 0 91 45 91 45z" />
    <glyph glyph-name="aring" unicode="&#xe5;" horiz-adv-x="450" 
d="M339 644c0 -69 -52 -108 -116 -108c-61 0 -119 31 -119 106c0 72 57 110 117 110c51 0 118 -28 118 -108zM435 59l-15 -59s-18 -6 -50 -6c-57 0 -74 51 -74 51s-43 -54 -122 -54c-73 0 -140 41 -140 133c0 125 152 141 198 147c33 4 55 4 55 4v22c0 74 -20 108 -96 108
c-70 0 -123 -54 -123 -54l-13 73s58 53 154 53s155 -45 155 -145c0 -33 -2 -86 -2 -188c0 -52 4 -87 47 -87c13 0 26 2 26 2zM282 643c0 36 -29 59 -61 59c-36 0 -60 -21 -60 -57s25 -60 61 -60s60 22 60 58zM287 216c0 0 -32 1 -76 -7c-45 -8 -97 -30 -97 -80
c0 -51 40 -73 81 -73c60 0 91 45 91 45z" />
    <glyph glyph-name="ccedilla" unicode="&#xe7;" horiz-adv-x="465" 
d="M437 417l-36 -70s-58 59 -142 59c-64 0 -131 -47 -131 -167c0 -114 67 -178 154 -178c90 0 145 47 145 47v-74s-54 -41 -161 -43l-18 -38c71 -15 111 -48 111 -103c0 -59 -46 -99 -116 -99c-61 0 -90 20 -90 20l9 54s35 -21 78 -21c34 0 58 11 58 35c0 39 -53 54 -118 65
v39s27 54 27 55c-91 22 -162 105 -162 243c0 153 108 236 225 236c112 0 167 -60 167 -60z" />
    <glyph glyph-name="eacute" unicode="&#xe9;" horiz-adv-x="491" 
d="M427 682l-201 -152l-39 41l183 167zM438 231h-312c0 -99 66 -169 164 -169c90 0 147 48 147 48v-76s-56 -43 -167 -43c-128 0 -225 87 -225 250c0 150 93 236 212 236c120 0 181 -98 181 -215v-31zM347 295c-2 75 -37 116 -100 116c-67 0 -109 -42 -115 -116h215z" />
    <glyph glyph-name="egrave" unicode="&#xe8;" horiz-adv-x="491" 
d="M335 571l-39 -41l-201 152l57 56zM438 231h-312c0 -99 66 -169 164 -169c90 0 147 48 147 48v-76s-56 -43 -167 -43c-128 0 -225 87 -225 250c0 150 93 236 212 236c120 0 181 -98 181 -215v-31zM347 295c-2 75 -37 116 -100 116c-67 0 -109 -42 -115 -116h215z" />
    <glyph glyph-name="ecircumflex" unicode="&#xea;" horiz-adv-x="491" 
d="M421 551l-39 -41l-132 106l-131 -106l-39 41l140 136h62zM438 231h-312c0 -99 66 -169 164 -169c90 0 147 48 147 48v-76s-56 -43 -167 -43c-128 0 -225 87 -225 250c0 150 93 236 212 236c120 0 181 -98 181 -215v-31zM347 295c-2 75 -37 116 -100 116
c-67 0 -109 -42 -115 -116h215z" />
    <glyph glyph-name="edieresis" unicode="&#xeb;" horiz-adv-x="491" 
d="M405 580c0 -27 -22 -48 -49 -48s-49 21 -49 48s22 49 49 49s49 -22 49 -49zM207 580c0 -27 -22 -48 -49 -48s-49 21 -49 48s22 49 49 49s49 -22 49 -49zM438 231h-312c0 -99 66 -169 164 -169c90 0 147 48 147 48v-76s-56 -43 -167 -43c-128 0 -225 87 -225 250
c0 150 93 236 212 236c120 0 181 -98 181 -215v-31zM347 295c-2 75 -37 116 -100 116c-67 0 -109 -42 -115 -116h215z" />
    <glyph glyph-name="iacute" unicode="&#xed;" horiz-adv-x="253" 
d="M307 682l-201 -152l-39 41l183 167zM166 0h-79v471h79v-471z" />
    <glyph glyph-name="igrave" unicode="&#xec;" horiz-adv-x="253" 
d="M186 571l-39 -41l-201 152l57 56zM166 0h-79v471h79v-471z" />
    <glyph glyph-name="icircumflex" unicode="&#xee;" horiz-adv-x="253" 
d="M298 551l-39 -41l-132 106l-131 -106l-39 41l140 136h62zM166 0h-79v471h79v-471z" />
    <glyph glyph-name="idieresis" unicode="&#xef;" horiz-adv-x="253" 
d="M275 580c0 -27 -22 -48 -49 -48s-49 21 -49 48s22 49 49 49s49 -22 49 -49zM77 580c0 -27 -22 -48 -49 -48s-49 21 -49 48s22 49 49 49s49 -22 49 -49zM166 0h-79v471h79v-471z" />
    <glyph glyph-name="ntilde" unicode="&#xf1;" horiz-adv-x="554" 
d="M453 603c0 0 -42 -58 -105 -58c-48 0 -83 43 -123 43c-32 0 -54 -11 -75 -40l-26 55s40 58 105 58c52 0 84 -43 123 -43c47 0 75 40 75 40zM472 0h-79v160c0 40 0 97 -1 116c-2 68 -19 129 -105 129c-72 0 -110 -35 -121 -48v-357h-79v471h79v-51s55 57 149 57
c156 0 156 -147 157 -187v-290z" />
    <glyph glyph-name="oacute" unicode="&#xf3;" horiz-adv-x="544" 
d="M427 682l-201 -152l-39 41l183 167zM499 236c0 -164 -111 -245 -232 -245c-129 0 -222 87 -222 240c0 161 106 246 229 246c139 0 225 -81 225 -241zM414 236c0 83 -34 171 -142 171c-106 0 -144 -87 -144 -172c0 -94 42 -174 145 -174c106 0 141 85 141 175z" />
    <glyph glyph-name="ograve" unicode="&#xf2;" horiz-adv-x="544" 
d="M355 571l-39 -41l-201 152l57 56zM499 236c0 -164 -111 -245 -232 -245c-129 0 -222 87 -222 240c0 161 106 246 229 246c139 0 225 -81 225 -241zM414 236c0 83 -34 171 -142 171c-106 0 -144 -87 -144 -172c0 -94 42 -174 145 -174c106 0 141 85 141 175z" />
    <glyph glyph-name="ocircumflex" unicode="&#xf4;" horiz-adv-x="544" 
d="M442 551l-39 -41l-132 106l-131 -106l-39 41l140 136h62zM499 236c0 -164 -111 -245 -232 -245c-129 0 -222 87 -222 240c0 161 106 246 229 246c139 0 225 -81 225 -241zM414 236c0 83 -34 171 -142 171c-106 0 -144 -87 -144 -172c0 -94 42 -174 145 -174
c106 0 141 85 141 175z" />
    <glyph glyph-name="odieresis" unicode="&#xf6;" horiz-adv-x="544" 
d="M419 580c0 -27 -22 -48 -49 -48s-49 21 -49 48s22 49 49 49s49 -22 49 -49zM221 580c0 -27 -22 -48 -49 -48s-49 21 -49 48s22 49 49 49s49 -22 49 -49zM499 236c0 -164 -111 -245 -232 -245c-129 0 -222 87 -222 240c0 161 106 246 229 246c139 0 225 -81 225 -241z
M414 236c0 83 -34 171 -142 171c-106 0 -144 -87 -144 -172c0 -94 42 -174 145 -174c106 0 141 85 141 175z" />
    <glyph glyph-name="otilde" unicode="&#xf5;" horiz-adv-x="544" 
d="M440 603c0 0 -42 -58 -105 -58c-48 0 -83 43 -123 43c-32 0 -54 -11 -75 -40l-26 55s40 58 105 58c52 0 84 -43 123 -43c47 0 75 40 75 40zM499 236c0 -164 -111 -245 -232 -245c-129 0 -222 87 -222 240c0 161 106 246 229 246c139 0 225 -81 225 -241zM414 236
c0 83 -34 171 -142 171c-106 0 -144 -87 -144 -172c0 -94 42 -174 145 -174c106 0 141 85 141 175z" />
    <glyph glyph-name="uacute" unicode="&#xfa;" horiz-adv-x="551" 
d="M475 682l-201 -152l-39 41l183 167zM464 0h-79v53s-54 -58 -148 -58c-150 0 -154 125 -155 190v286h79v-268c1 -88 21 -139 105 -139c67 0 108 37 119 50v357h79v-471z" />
    <glyph glyph-name="ugrave" unicode="&#xf9;" horiz-adv-x="551" 
d="M333 571l-39 -41l-201 152l57 56zM464 0h-79v53s-54 -58 -148 -58c-150 0 -154 125 -155 190v286h79v-268c1 -88 21 -139 105 -139c67 0 108 37 119 50v357h79v-471z" />
    <glyph glyph-name="ucircumflex" unicode="&#xfb;" horiz-adv-x="551" 
d="M447 551l-39 -41l-132 106l-131 -106l-39 41l140 136h62zM464 0h-79v53s-54 -58 -148 -58c-150 0 -154 125 -155 190v286h79v-268c1 -88 21 -139 105 -139c67 0 108 37 119 50v357h79v-471z" />
    <glyph glyph-name="udieresis" unicode="&#xfc;" horiz-adv-x="551" 
d="M424 580c0 -27 -22 -48 -49 -48s-49 21 -49 48s22 49 49 49s49 -22 49 -49zM226 580c0 -27 -22 -48 -49 -48s-49 21 -49 48s22 49 49 49s49 -22 49 -49zM464 0h-79v53s-54 -58 -148 -58c-150 0 -154 125 -155 190v286h79v-268c1 -88 21 -139 105 -139c67 0 108 37 119 50
v357h79v-471z" />
    <glyph glyph-name="dagger" unicode="&#x2020;" horiz-adv-x="597" 
d="M524 460c0 -21 -4 -40 -45 -40s-147 9 -147 9s6 -365 6 -406c0 -32 -7 -40 -39 -40c-31 0 -41 8 -41 40c0 41 9 405 9 405s-108 -8 -149 -8s-45 19 -45 40s4 40 45 40s149 -10 149 -10s-9 141 -9 182c0 29 19 29 41 29c21 0 40 0 40 -29c0 -41 -9 -182 -9 -182
s108 10 149 10s45 -19 45 -40z" />
    <glyph glyph-name="degree" unicode="&#xb0;" horiz-adv-x="310" 
d="M276 580c0 -66 -52 -115 -123 -115c-78 0 -119 49 -119 115c0 63 54 115 122 115c71 0 120 -48 120 -115zM226 580c0 41 -29 72 -71 72s-72 -32 -72 -72c0 -45 30 -73 72 -73c43 0 71 31 71 73z" />
    <glyph glyph-name="cent" unicode="&#xa2;" horiz-adv-x="597" 
d="M492 546l-23 -74s-51 36 -117 44v-344c76 3 135 45 135 45v-78s-48 -29 -135 -35v-76h-68v76c-96 13 -187 85 -187 239c0 168 98 233 187 242v78h68v-76c79 -4 140 -41 140 -41zM284 177v339c-54 -8 -106 -55 -106 -166c0 -103 51 -162 106 -173z" />
    <glyph glyph-name="sterling" unicode="&#xa3;" horiz-adv-x="597" 
d="M549 74c0 -61 -46 -75 -140 -75c-89 0 -120 3 -213 3c-50 0 -100 -2 -129 -2v60c40 0 76 7 98 50c16 30 27 77 27 145c0 5 0 21 -1 32h-128v69h125s-7 78 -7 110c0 170 79 226 187 226c77 0 131 -34 131 -34l-20 -71s-61 32 -112 32c-73 0 -101 -37 -101 -147
c0 -54 5 -116 5 -116h209v-69h-207v-40c0 -134 -61 -175 -61 -175s61 -3 126 -3c93 0 112 1 129 17c12 11 14 32 14 66h64s4 -32 4 -78z" />
    <glyph glyph-name="section" unicode="&#xa7;" horiz-adv-x="597" 
d="M502 245c0 -108 -99 -152 -99 -152s82 -35 82 -134c0 -103 -82 -167 -203 -167c-114 0 -175 33 -175 33v79s85 -39 179 -39c62 0 110 28 110 88c0 67 -72 91 -145 122c-70 30 -147 72 -147 165c0 105 100 142 100 142s-93 36 -93 143c0 113 85 160 200 160
c87 0 148 -25 148 -25v-82s-80 32 -151 32c-63 0 -111 -16 -111 -79c0 -78 81 -96 152 -125c57 -23 153 -55 153 -161zM414 229c0 60 -46 83 -83 96c-25 9 -68 25 -68 25s-75 -24 -75 -99c0 -62 60 -83 79 -92c29 -14 79 -32 79 -32s68 28 68 102z" />
    <glyph glyph-name="bullet" unicode="&#x2022;" horiz-adv-x="597" 
d="M444 341c0 -80 -65 -144 -145 -144s-145 64 -145 144s65 145 145 145s145 -65 145 -145z" />
    <glyph glyph-name="paragraph" unicode="&#xb6;" horiz-adv-x="589" 
d="M577 639c0 0 -75 -16 -149 -17v-349h108v-69h-108c0 -133 -3 -200 -38 -249c-28 -42 -78 -65 -147 -65s-109 20 -109 20v75s49 -17 105 -17c45 0 69 11 86 43c17 33 20 93 20 193c-153 0 -290 61 -290 244c0 125 55 186 122 217c57 26 124 26 170 26c149 0 221 21 221 21
zM345 273v348c-88 0 -94 -47 -94 -173s6 -175 94 -175z" />
    <glyph glyph-name="germandbls" unicode="&#xdf;" horiz-adv-x="587" 
d="M556 134c0 -114 -94 -140 -156 -140c-99 0 -140 34 -140 34v75s68 -40 128 -40c61 0 88 21 88 62c0 46 -57 66 -101 86c-56 26 -105 58 -105 136c0 67 40 102 73 134c30 29 70 57 70 112c0 66 -56 99 -115 99c-38 0 -72 -12 -94 -39s-31 -61 -31 -124v-529h-79v391h-80
v69h80v86c0 70 15 118 46 156c34 42 90 65 160 65c101 0 200 -50 200 -163c0 -70 -49 -120 -79 -150c-34 -34 -70 -57 -70 -103c0 -40 32 -52 90 -82c54 -28 115 -55 115 -135z" />
    <glyph glyph-name="registered" unicode="&#xae;" horiz-adv-x="846" 
d="M790 336c0 -235 -161 -352 -365 -352c-164 0 -369 89 -369 352c0 238 162 358 367 358c187 0 367 -100 367 -358zM728 336c0 212 -147 303 -303 303c-164 0 -306 -87 -306 -297c0 -264 213 -304 314 -304c156 0 295 82 295 298zM614 150c0 0 -12 -3 -25 -3
c-42 0 -78 19 -119 64c-36 39 -58 80 -58 80s-42 3 -64 5v-149h-57v381s39 2 93 2c42 0 81 -3 111 -17c29 -14 56 -46 56 -92c0 -83 -64 -109 -84 -116c10 -15 91 -115 142 -115h5v-40zM484 411c0 61 -48 68 -85 68c-22 0 -51 -2 -51 -2v-131s24 -6 50 -6c53 0 86 21 86 71z
" />
    <glyph glyph-name="copyright" unicode="&#xa9;" horiz-adv-x="846" 
d="M790 336c0 -235 -161 -352 -365 -352c-164 0 -369 89 -369 352c0 238 162 358 367 358c187 0 367 -100 367 -358zM728 336c0 212 -147 303 -303 303c-164 0 -306 -87 -306 -297c0 -264 213 -304 314 -304c156 0 295 82 295 298zM569 161c0 0 -34 -20 -117 -20
c-160 0 -222 102 -222 200c0 141 95 194 202 194c88 0 129 -28 129 -28v-59s-51 28 -133 28c-77 0 -131 -42 -131 -131c0 -86 53 -148 162 -148c66 0 110 23 110 23v-59z" />
    <glyph glyph-name="trademark" unicode="&#x2122;" horiz-adv-x="857" 
d="M769 378h-54v218l-112 -218h-53l-110 218v-218h-52v323h62l130 -264l131 264h58v-323zM334 649h-131v-271h-57v271h-128v52h316v-52z" />
    <glyph glyph-name="acute" unicode="&#xb4;" 
d="M368 682l-201 -152l-39 41l183 167z" />
    <glyph glyph-name="dieresis" unicode="&#xa8;" 
d="M398 580c0 -27 -22 -48 -49 -48s-49 21 -49 48s22 49 49 49s49 -22 49 -49zM200 580c0 -27 -22 -48 -49 -48s-49 21 -49 48s22 49 49 49s49 -22 49 -49z" />
    <glyph glyph-name="notequal" unicode="&#x2260;" horiz-adv-x="549" 
d="M464 129h-202l-42 -107h-49l42 107h-128v55h149l30 82h-179v55h198l37 104h49l-36 -104h131v-55h-151l-30 -82h181v-55z" />
    <glyph glyph-name="AE" unicode="&#xc6;" horiz-adv-x="937" 
d="M909 0h-397v264h-192l-178 -264h-98l468 683h373v-82h-288v-215h278v-79h-278v-225h312v-82zM512 339v209l-141 -209h141z" />
    <glyph glyph-name="Oslash" unicode="&#xd8;" horiz-adv-x="817" 
d="M792 675l-103 -110s64 -72 64 -223c0 -211 -131 -353 -349 -353c-132 0 -200 57 -200 57l-93 -100l-55 50l92 99s-84 79 -84 249c0 216 143 351 352 351c148 0 223 -74 223 -74l98 105zM582 560c0 0 -50 61 -171 61c-171 0 -258 -119 -258 -276c0 -132 54 -187 54 -187z
M665 343c0 100 -37 157 -37 157l-369 -395s53 -43 145 -43c177 0 261 122 261 281z" />
    <glyph glyph-name="infinity" unicode="&#x221e;" horiz-adv-x="713" 
d="M687 269c0 -83 -59 -145 -135 -145c-66 0 -105 26 -195 107c-76 -73 -122 -106 -203 -106c-76 0 -127 49 -127 134c0 83 59 145 135 145c66 0 105 -26 195 -107c76 71 122 106 203 106c76 0 127 -49 127 -134zM633 268c0 62 -43 87 -91 87c-49 0 -86 -27 -152 -91
c79 -67 117 -88 156 -88c62 0 87 38 87 92zM324 264c-79 67 -117 88 -156 88c-62 0 -87 -38 -87 -92c0 -62 43 -87 91 -87c49 0 86 27 152 91z" />
    <glyph glyph-name="plusminus" unicode="&#xb1;" horiz-adv-x="549" 
d="M467 263h-167v-166h-55v166h-165v55h165v166h55v-166h167v-55zM470 0h-391v55h391v-55z" />
    <glyph glyph-name="lessequal" unicode="&#x2264;" horiz-adv-x="549" 
d="M455 101l-391 163v56l391 174v-57l-321 -143l321 -130v-63zM456 0h-391v55h391v-55z" />
    <glyph glyph-name="greaterequal" unicode="&#x2265;" horiz-adv-x="549" 
d="M482 265l-391 -164v57l321 133l-321 140v63l391 -173v-56zM484 0h-391v55h391v-55z" />
    <glyph glyph-name="yen" unicode="&#xa5;" horiz-adv-x="597" 
d="M584 683l-246 -318v-36h153v-73h-153v-63h153v-73h-153v-120h-81v120h-152v73h152v63h-152v73h152v42l-236 312h102l182 -240l183 240h96z" />
    <glyph glyph-name="mu" unicode="&#xb5;" horiz-adv-x="541" 
d="M531 68c-18 -75 -68 -89 -110 -89c-50 0 -64 41 -73 76c-17 -17 -76 -65 -146 -65c-39 0 -66 10 -84 30v-28c0 -53 28 -100 28 -134c0 -45 -21 -61 -44 -61s-40 17 -40 61c0 35 24 81 24 134v327c0 72 -7 84 -53 84h-7v22h12c23 0 35 -2 58 -2c20 0 30 2 50 2h13v-286
c0 -60 24 -89 90 -89c32 0 70 10 99 28v241c0 72 -6 84 -52 84h-9v22h14c22 0 34 -2 56 -2c20 0 30 2 50 2h14v-289c0 -81 13 -98 42 -98c30 0 35 12 50 30h18z" />
    <glyph glyph-name="partialdiff" unicode="&#x2202;" horiz-adv-x="494" 
d="M462 393c0 -204 -77 -408 -255 -408c-96 0 -166 56 -166 190c0 188 100 263 200 263c73 0 102 -21 141 -63c2 24 3 37 3 75c0 133 -45 208 -169 208c-71 0 -90 -18 -112 -31l-39 50c30 15 74 28 134 28c173 0 263 -143 263 -312zM377 335c-21 23 -51 58 -112 58
c-95 0 -141 -86 -141 -218c0 -121 33 -158 92 -158c107 0 148 151 161 318z" />
    <glyph glyph-name="summation" unicode="&#x2211;" horiz-adv-x="713" 
d="M695 122c-25 -102 -30 -122 -43 -224c-26 4 -52 11 -77 11h-503c-20 0 -38 -3 -58 -3l349 398l-347 454c34 -2 70 -7 104 -7h497l6 -159h-20c-20 65 -25 114 -153 114h-263l273 -358l-294 -339h371c66 0 100 24 135 113h23z" />
    <glyph glyph-name="product" unicode="&#x220f;" horiz-adv-x="823" 
d="M803 -101h-306v23c58 0 96 11 96 81v693h-358v-693c0 -70 38 -81 97 -81v-23h-307v23c60 0 97 11 97 81v626c0 93 -67 99 -95 99v23h773v-23c-28 0 -94 -6 -94 -99v-626c0 -70 38 -81 97 -81v-23z" />
    <glyph glyph-name="pi" unicode="&#x3c0;" horiz-adv-x="549" 
d="M506 136c0 -90 -50 -147 -104 -147c-48 0 -74 41 -74 104c0 22 18 257 18 257h-131l-22 -174c-15 -121 -22 -189 -74 -189c-35 0 -52 18 -52 43c0 53 65 53 79 146l27 174h-54c-25 0 -61 -15 -77 -56h-15c6 19 30 132 134 132h338v-76h-111c-7 -83 -12 -135 -12 -174
c0 -56 7 -106 60 -106c27 0 52 34 52 66h18z" />
    <glyph glyph-name="integral" unicode="&#x222b;" horiz-adv-x="274" 
d="M291 822c0 -26 -22 -46 -52 -46c-25 0 -37 26 -50 26s-18 -15 -18 -24c-2 -37 19 -194 19 -330l-1 -216c-1 -157 -20 -249 -38 -295c-17 -44 -46 -84 -93 -84c-37 0 -58 25 -58 49c0 20 13 50 46 50c41 0 36 -24 59 -24c11 0 23 46 21 106c-2 74 -7 148 -6 314v144
c0 159 5 239 26 310c9 30 41 74 83 74c39 0 62 -17 62 -54z" />
    <glyph glyph-name="ordfeminine" unicode="&#xaa;" horiz-adv-x="355" 
d="M330 431l-12 -46s-15 -5 -37 -5c-30 0 -44 25 -49 35c-10 -10 -36 -37 -80 -37c-49 0 -95 28 -95 90c0 85 104 98 134 100c15 1 32 2 32 2v11c0 45 -14 66 -60 66c-43 0 -82 -39 -82 -39l-10 57s39 37 104 37s106 -30 106 -98c0 -22 -1 -56 -1 -123c0 -30 1 -52 27 -52
c8 0 23 2 23 2zM223 454v73s-23 0 -44 -3c-35 -5 -62 -22 -62 -52s24 -44 49 -44c35 0 53 20 57 26z" />
    <glyph glyph-name="ordmasculine" unicode="&#xba;" horiz-adv-x="396" 
d="M351 541c0 -109 -76 -163 -157 -163c-85 0 -149 58 -149 160c0 108 72 164 154 164c92 0 152 -54 152 -161zM287 541c0 52 -22 108 -89 108c-66 0 -91 -55 -91 -108c0 -59 27 -110 91 -110c66 0 89 54 89 110z" />
    <glyph glyph-name="Omega" unicode="&#x2126;" horiz-adv-x="768" 
d="M736 0h-295l16 140c65 25 152 93 152 264c0 142 -68 267 -224 267c-158 0 -224 -117 -224 -267c0 -173 89 -243 152 -264l16 -140h-295v150h25c12 -49 24 -61 66 -61h148l-2 28c-145 33 -214 168 -214 287c0 183 138 299 328 299c198 0 328 -115 328 -299
c0 -119 -58 -254 -214 -287l-3 -28h149c42 0 54 12 66 61h25v-150z" />
    <glyph glyph-name="ae" unicode="&#xe6;" horiz-adv-x="722" 
d="M669 231h-308c0 -99 62 -169 160 -169c90 0 147 48 147 48v-76s-56 -43 -167 -43s-162 70 -162 70s-56 -70 -159 -70c-83 0 -146 43 -146 129c0 105 96 135 174 148c43 7 80 7 80 7v22c0 74 -21 108 -97 108c-72 0 -123 -54 -123 -54l-13 73s56 53 155 53
c105 0 132 -60 132 -60s45 60 146 60c120 0 181 -98 181 -215v-31zM578 292c0 76 -37 119 -100 119c-67 0 -111 -43 -115 -119h215zM298 99l-10 118s-39 -1 -81 -9c-45 -10 -93 -28 -93 -83c0 -45 37 -69 87 -69c62 0 97 43 97 43z" />
    <glyph glyph-name="oslash" unicode="&#xf8;" horiz-adv-x="562" 
d="M515 489l-61 -81s57 -49 57 -172c0 -167 -101 -245 -231 -245c-80 0 -119 28 -119 28l-59 -78l-53 42l60 79s-58 52 -58 168c0 113 55 247 234 247c75 0 115 -27 115 -27l62 82zM355 390c0 0 -20 19 -70 19c-117 0 -153 -86 -153 -175c0 -78 25 -107 25 -107zM428 236
c0 70 -24 105 -24 105l-200 -264s23 -19 78 -19c108 0 146 85 146 178z" />
    <glyph glyph-name="questiondown" unicode="&#xbf;" horiz-adv-x="422" 
d="M335 425c0 -31 -26 -53 -56 -53c-32 0 -56 22 -56 53s24 52 56 52c30 0 56 -21 56 -52zM392 -160c0 0 -54 -61 -159 -61c-121 0 -206 70 -206 191c0 126 90 172 154 198c62 25 96 31 96 61c0 27 -22 68 -22 68l68 24s32 -67 32 -118c0 -61 -61 -74 -125 -99
c-58 -23 -116 -47 -116 -127c0 -87 56 -119 126 -119c72 0 135 57 135 57z" />
    <glyph glyph-name="exclamdown" unicode="&#xa1;" horiz-adv-x="248" 
d="M188 425c0 -31 -26 -53 -56 -53c-32 0 -56 22 -56 53s24 52 56 52c30 0 56 -21 56 -52zM177 -54c0 -125 6 -166 -46 -166s-44 41 -44 166c0 123 10 331 10 331h70s10 -208 10 -331z" />
    <glyph glyph-name="logicalnot" unicode="&#xac;" horiz-adv-x="549" 
d="M499 97h-70v212h-378v68h448v-280z" />
    <glyph glyph-name="radical" unicode="&#x221a;" horiz-adv-x="549" 
d="M515 912l-150 -950l-243 502l-96 -47l-16 33l146 72l197 -403l127 798z" />
    <glyph glyph-name="florin" unicode="&#x192;" horiz-adv-x="597" 
d="M607 742l-18 -69s-52 23 -105 23c-30 0 -61 -6 -88 -35c-28 -30 -47 -83 -56 -167l-5 -47h126v-65h-132l-4 -46c-8 -97 -26 -254 -65 -355s-108 -149 -200 -149c-73 0 -129 34 -129 34l21 69s57 -34 110 -34c46 0 88 16 117 81c35 79 53 208 68 352l4 48h-107v65h112
l5 50c13 134 50 196 103 234c36 26 79 36 121 36c74 0 122 -25 122 -25z" />
    <glyph glyph-name="approxequal" unicode="&#x2248;" horiz-adv-x="549" 
d="M479 310c-25 -47 -72 -72 -112 -72c-12 0 -23 2 -33 5l-120 39c-13 3 -25 5 -34 6c-52 1 -72 -42 -81 -54l-36 37c33 48 73 71 117 71c14 0 27 -1 42 -6l121 -38c7 -2 15 -2 24 -2c19 0 59 10 82 48zM479 180c-25 -47 -72 -71 -112 -71c-12 0 -23 1 -33 4l-120 39
c-13 3 -25 5 -34 6c-52 1 -72 -42 -81 -54l-36 37c33 48 73 71 117 71c14 0 27 -1 42 -6l121 -38c7 -1 15 -2 24 -2c19 0 59 10 82 48z" />
    <glyph glyph-name="Delta" unicode="&#x2206;" horiz-adv-x="612" 
d="M608 0h-602l320 688zM484 49l-194 468l-218 -468h412z" />
    <glyph glyph-name="guillemotleft" unicode="&#xab;" horiz-adv-x="427" 
d="M389 16h-70l-106 220l106 220h70l-96 -220zM219 16h-70l-106 220l106 220h70l-96 -220z" />
    <glyph glyph-name="guillemotright" unicode="&#xbb;" horiz-adv-x="427" 
d="M389 236l-106 -220h-70l96 220l-96 220h70zM219 236l-106 -220h-70l96 220l-96 220h70z" />
    <glyph glyph-name="ellipsis" unicode="&#x2026;" horiz-adv-x="1000" 
d="M893 48c0 -33 -26 -56 -60 -56c-32 0 -60 23 -60 56s28 57 60 57c34 0 60 -24 60 -57zM560 48c0 -33 -26 -56 -60 -56c-32 0 -60 23 -60 56s28 57 60 57c34 0 60 -24 60 -57zM227 48c0 -33 -26 -56 -60 -56c-32 0 -60 23 -60 56s28 57 60 57c34 0 60 -24 60 -57z" />
    <glyph glyph-name="nbspace" unicode="&#xa0;" horiz-adv-x="200" 
 />
    <glyph glyph-name="Agrave" unicode="&#xc0;" horiz-adv-x="698" 
d="M427 771l-39 -41l-201 152l57 56zM662 0h-92l-99 253h-249l-99 -253h-87l274 683h78zM441 328l-94 241l-95 -241h189z" />
    <glyph glyph-name="Atilde" unicode="&#xc3;" horiz-adv-x="698" 
d="M514 803c0 0 -42 -58 -105 -58c-48 0 -83 43 -123 43c-32 0 -54 -11 -75 -40l-26 55s40 58 105 58c52 0 84 -43 123 -43c47 0 75 40 75 40zM662 0h-92l-99 253h-249l-99 -253h-87l274 683h78zM441 328l-94 241l-95 -241h189z" />
    <glyph glyph-name="Otilde" unicode="&#xd5;" horiz-adv-x="801" 
d="M565 803c0 0 -42 -58 -105 -58c-48 0 -83 43 -123 43c-32 0 -54 -11 -75 -40l-26 55s40 58 105 58c52 0 84 -43 123 -43c47 0 75 40 75 40zM745 342c0 -211 -131 -353 -349 -353c-212 0 -340 146 -340 355c0 216 143 351 352 351c220 0 337 -153 337 -353zM654 343
c0 157 -90 275 -251 275c-169 0 -255 -118 -255 -273c0 -151 83 -280 248 -280c175 0 258 121 258 278z" />
    <glyph glyph-name="OE" unicode="&#x152;" horiz-adv-x="968" 
d="M940 0h-367c-45 0 -71 -3 -145 -3c-123 0 -204 23 -267 79c-66 58 -105 149 -105 270c0 108 33 193 88 250c69 71 160 91 290 91c95 0 128 -4 165 -4h317v-82h-288v-214h278v-81h-278v-224h312v-82zM543 79v525s-32 5 -117 6c-80 0 -150 -10 -201 -56
c-48 -43 -77 -107 -77 -205c0 -167 81 -274 274 -274c84 0 121 4 121 4z" />
    <glyph glyph-name="oe" unicode="&#x153;" horiz-adv-x="859" 
d="M806 231h-312c0 -99 66 -169 164 -169c90 0 147 48 147 48v-76s-56 -43 -167 -43c-135 0 -185 92 -185 92s-56 -92 -186 -92c-129 0 -222 85 -222 240c0 161 106 246 229 246c136 0 181 -83 181 -83s47 83 170 83c120 0 181 -98 181 -215v-31zM715 295
c-2 75 -37 116 -100 116c-67 0 -109 -42 -115 -116h215zM414 236c0 83 -34 171 -142 171c-106 0 -144 -87 -144 -172c0 -94 42 -174 145 -174c106 0 141 85 141 175z" />
    <glyph glyph-name="endash" unicode="&#x2013;" 
d="M500 219h-500v66h500v-66z" />
    <glyph glyph-name="emdash" unicode="&#x2014;" horiz-adv-x="1000" 
d="M1000 219h-1000v66h1000v-66z" />
    <glyph glyph-name="quotedblleft" unicode="&#x201c;" horiz-adv-x="395" 
d="M415 721c0 0 -39 -16 -75 -46c-23 -19 -33 -36 -33 -36c33 -10 45 -30 45 -55c0 -35 -28 -57 -59 -57c-34 0 -60 25 -60 64c0 85 75 151 156 176zM210 721c0 0 -39 -16 -75 -46c-23 -19 -33 -36 -33 -36c33 -10 45 -30 45 -55c0 -35 -28 -57 -59 -57c-34 0 -60 25 -60 64
c0 85 75 151 156 176z" />
    <glyph glyph-name="quotedblright" unicode="&#x201d;" horiz-adv-x="395" 
d="M383 703c0 -85 -75 -151 -156 -176l-26 46s39 16 75 46c23 19 33 36 33 36c-33 10 -45 30 -45 55c0 35 28 57 59 57c34 0 60 -25 60 -64zM178 703c0 -85 -75 -151 -156 -176l-26 46s39 16 75 46c23 19 33 36 33 36c-33 10 -45 30 -45 55c0 35 28 57 59 57
c34 0 60 -25 60 -64z" />
    <glyph glyph-name="quoteleft" unicode="&#x2018;" horiz-adv-x="190" 
d="M210 721c0 0 -39 -16 -75 -46c-23 -19 -33 -36 -33 -36c33 -10 45 -30 45 -55c0 -35 -28 -57 -59 -57c-34 0 -60 25 -60 64c0 85 75 151 156 176z" />
    <glyph glyph-name="quoteright" unicode="&#x2019;" horiz-adv-x="190" 
d="M178 703c0 -85 -75 -151 -156 -176l-26 46s39 16 75 46c23 19 33 36 33 36c-33 10 -45 30 -45 55c0 35 28 57 59 57c34 0 60 -25 60 -64z" />
    <glyph glyph-name="divide" unicode="&#xf7;" horiz-adv-x="549" 
d="M328 371c0 -32 -24 -56 -58 -56c-29 0 -53 25 -53 56s25 56 56 56s55 -24 55 -56zM464 198h-379v55h379v-55zM328 81c0 -32 -24 -56 -58 -56c-29 0 -53 25 -53 56s25 56 56 56s55 -24 55 -56z" />
    <glyph glyph-name="lozenge" unicode="&#x25ca;" horiz-adv-x="494" 
d="M466 377l-194 -377h-60l-194 377l194 368h60zM406 377l-164 314l-164 -314l164 -323z" />
    <glyph glyph-name="ydieresis" unicode="&#xff;" horiz-adv-x="456" 
d="M382 580c0 -27 -22 -48 -49 -48s-49 21 -49 48s22 49 49 49s49 -22 49 -49zM184 580c0 -27 -22 -48 -49 -48s-49 21 -49 48s22 49 49 49s49 -22 49 -49zM441 471l-176 -482c-13 -37 -33 -91 -52 -132c-33 -71 -72 -96 -132 -96c-47 0 -84 22 -84 22l14 71s38 -20 73 -20
c34 0 52 22 77 85c10 24 29 79 29 79l-176 473h89l130 -367l125 367h83z" />
    <glyph glyph-name="Ydieresis" unicode="&#x178;" horiz-adv-x="587" 
d="M450 780c0 -27 -22 -48 -49 -48s-49 21 -49 48s22 49 49 49s49 -22 49 -49zM252 780c0 -27 -22 -48 -49 -48s-49 21 -49 48s22 49 49 49s49 -22 49 -49zM585 683l-252 -376v-307h-85v313l-246 370h102l193 -295l192 295h96z" />
    <glyph glyph-name="fraction" unicode="&#x2044;" horiz-adv-x="0" 
d="M268 733l-478 -833l-57 34l477 836z" />
    <glyph glyph-name="currency" unicode="&#xa4;" horiz-adv-x="597" 
d="M521 170l-51 -51l-51 53s-37 -35 -121 -35c-80 0 -121 35 -121 35l-49 -51l-51 51l51 49s-36 44 -36 121c0 74 37 119 37 119l-52 51l51 51l50 -52s44 37 120 37c83 0 125 -32 125 -32l47 49l51 -51l-48 -46s35 -41 35 -125c0 -75 -39 -123 -39 -123zM432 343
c0 81 -51 141 -133 141c-79 0 -131 -55 -131 -141c0 -81 50 -141 131 -141c79 0 133 56 133 141z" />
    <glyph glyph-name="guilsinglleft" unicode="&#x2039;" horiz-adv-x="257" 
d="M219 16h-70l-106 220l106 220h70l-96 -220z" />
    <glyph glyph-name="guilsinglright" unicode="&#x203a;" horiz-adv-x="257" 
d="M214 236l-106 -220h-70l96 220l-96 220h70z" />
    <glyph glyph-name="fi" unicode="&#xfb01;" horiz-adv-x="525" 
d="M438 0h-79v391h-186v-391h-79v391h-80v69h80v86c0 165 82 221 190 221c81 0 124 -27 124 -27l-12 -78s-47 27 -108 27c-32 0 -62 -7 -82 -28c-24 -25 -33 -60 -33 -122v-79h265v-460z" />
    <glyph glyph-name="fl" unicode="&#xfb02;" horiz-adv-x="525" 
d="M438 0h-79v662s-31 12 -68 12c-33 0 -64 -6 -85 -28c-24 -25 -33 -65 -33 -127v-59h117v-69h-117v-391h-79v391h-80v69h80v66c0 165 82 221 190 221c47 0 75 -11 75 -11v30h79v-766z" />
    <glyph glyph-name="daggerdbl" unicode="&#x2021;" horiz-adv-x="597" 
d="M524 460c0 -21 -4 -40 -45 -40s-147 9 -147 9s5 -46 5 -87s-8 -86 -8 -86s108 8 149 8s45 -19 45 -40s-4 -40 -45 -40s-149 10 -149 10s9 -141 9 -182c0 -29 -19 -29 -41 -29c-21 0 -40 0 -40 29c0 41 9 182 9 182s-108 -10 -149 -10s-45 19 -45 40s4 40 45 40
s153 -9 153 -9s-8 45 -8 86s5 87 5 87s-108 -8 -149 -8s-45 19 -45 40s4 40 45 40s149 -10 149 -10s-9 141 -9 182c0 31 19 29 41 29c21 0 40 2 40 -29c0 -41 -9 -182 -9 -182s108 10 149 10s45 -19 45 -40z" />
    <glyph glyph-name="periodcentered" unicode="&#xb7;" horiz-adv-x="597" 
d="M384 341c0 -47 -38 -84 -85 -84s-85 37 -85 84s38 85 85 85s85 -38 85 -85z" />
    <glyph glyph-name="quotesinglbase" unicode="&#x201a;" horiz-adv-x="190" 
d="M160 39c0 -85 -75 -151 -156 -176l-26 46s39 16 75 46c23 19 33 36 33 36c-33 10 -45 30 -45 55c0 35 28 57 59 57c34 0 60 -25 60 -64z" />
    <glyph glyph-name="quotedblbase" unicode="&#x201e;" horiz-adv-x="395" 
d="M365 39c0 -85 -75 -151 -156 -176l-26 46s39 16 75 46c23 19 33 36 33 36c-33 10 -45 30 -45 55c0 35 28 57 59 57c34 0 60 -25 60 -64zM160 39c0 -85 -75 -151 -156 -176l-26 46s39 16 75 46c23 19 33 36 33 36c-33 10 -45 30 -45 55c0 35 28 57 59 57
c34 0 60 -25 60 -64z" />
    <glyph glyph-name="perthousand" unicode="&#x2030;" horiz-adv-x="1212" 
d="M380 570c0 -108 -72 -176 -168 -176c-104 0 -167 71 -167 171c0 104 69 172 170 172c98 0 165 -65 165 -167zM674 733l-478 -833l-57 34l477 836zM1167 99c0 -108 -72 -176 -168 -176c-104 0 -167 71 -167 171c0 104 69 172 170 172c98 0 165 -65 165 -167zM765 99
c0 -108 -72 -176 -168 -176c-104 0 -167 71 -167 171c0 104 69 172 170 172c98 0 165 -65 165 -167zM310 563c0 68 -34 115 -96 115c-74 0 -101 -60 -101 -112c0 -71 40 -113 99 -113c72 0 98 57 98 110zM1097 92c0 68 -34 115 -96 115c-74 0 -101 -60 -101 -112
c0 -71 40 -113 99 -113c72 0 98 57 98 110zM695 92c0 68 -34 115 -96 115c-74 0 -101 -60 -101 -112c0 -71 40 -113 99 -113c72 0 98 57 98 110z" />
    <glyph glyph-name="Acircumflex" unicode="&#xc2;" horiz-adv-x="698" 
d="M520 751l-39 -41l-132 106l-131 -106l-39 41l140 136h62zM662 0h-92l-99 253h-249l-99 -253h-87l274 683h78zM441 328l-94 241l-95 -241h189z" />
    <glyph glyph-name="Ecircumflex" unicode="&#xca;" horiz-adv-x="516" 
d="M452 751l-39 -41l-132 106l-131 -106l-39 41l140 136h62zM488 0h-397v683h373v-81h-288v-215h278v-81h-278v-225h312v-81z" />
    <glyph glyph-name="Aacute" unicode="&#xc1;" horiz-adv-x="698" 
d="M511 882l-201 -152l-39 41l183 167zM662 0h-92l-99 253h-249l-99 -253h-87l274 683h78zM441 328l-94 241l-95 -241h189z" />
    <glyph glyph-name="Edieresis" unicode="&#xcb;" horiz-adv-x="516" 
d="M429 780c0 -27 -22 -48 -49 -48s-49 21 -49 48s22 49 49 49s49 -22 49 -49zM231 780c0 -27 -22 -48 -49 -48s-49 21 -49 48s22 49 49 49s49 -22 49 -49zM488 0h-397v683h373v-81h-288v-215h278v-81h-278v-225h312v-81z" />
    <glyph glyph-name="Egrave" unicode="&#xc8;" horiz-adv-x="516" 
d="M394 771l-39 -41l-201 152l57 56zM488 0h-397v683h373v-81h-288v-215h278v-81h-278v-225h312v-81z" />
    <glyph glyph-name="Iacute" unicode="&#xcd;" horiz-adv-x="267" 
d="M292 882l-201 -152l-39 41l183 167zM176 0h-85v683h85v-683z" />
    <glyph glyph-name="Icircumflex" unicode="&#xce;" horiz-adv-x="267" 
d="M304 751l-39 -41l-132 106l-131 -106l-39 41l140 136h62zM176 0h-85v683h85v-683z" />
    <glyph glyph-name="Idieresis" unicode="&#xcf;" horiz-adv-x="267" 
d="M281 780c0 -27 -22 -48 -49 -48s-49 21 -49 48s22 49 49 49s49 -22 49 -49zM83 780c0 -27 -22 -48 -49 -48s-49 21 -49 48s22 49 49 49s49 -22 49 -49zM176 0h-85v683h85v-683z" />
    <glyph glyph-name="Igrave" unicode="&#xcc;" horiz-adv-x="267" 
d="M215 771l-39 -41l-201 152l57 56zM176 0h-85v683h85v-683z" />
    <glyph glyph-name="Oacute" unicode="&#xd3;" horiz-adv-x="801" 
d="M557 882l-201 -152l-39 41l183 167zM745 342c0 -211 -131 -353 -349 -353c-212 0 -340 146 -340 355c0 216 143 351 352 351c220 0 337 -153 337 -353zM654 343c0 157 -90 275 -251 275c-169 0 -255 -118 -255 -273c0 -151 83 -280 248 -280c175 0 258 121 258 278z" />
    <glyph glyph-name="Ocircumflex" unicode="&#xd4;" horiz-adv-x="801" 
d="M571 751l-39 -41l-132 106l-131 -106l-39 41l140 136h62zM745 342c0 -211 -131 -353 -349 -353c-212 0 -340 146 -340 355c0 216 143 351 352 351c220 0 337 -153 337 -353zM654 343c0 157 -90 275 -251 275c-169 0 -255 -118 -255 -273c0 -151 83 -280 248 -280
c175 0 258 121 258 278z" />
    <glyph glyph-name="apple" horiz-adv-x="804" 
d="M672 272c0 -166 -110 -281 -203 -281c-50 0 -41 17 -60 17c-20 0 -10 -17 -68 -17c-50 0 -211 65 -211 288c0 114 48 164 135 164c75 0 80 -26 104 -26c32 0 15 61 14 107c-1 59 13 116 54 146c49 36 149 21 149 90h3c6 -16 19 -72 4 -134c-25 -108 -183 -86 -183 -153
c0 -25 3 -59 29 -59c19 0 21 29 106 29c119 0 127 -91 127 -171zM582 709c-19 -45 -60 -64 -102 -93c-47 -32 -65 -62 -80 -104c37 70 65 72 112 106c36 26 67 56 70 91zM312 137c-54 115 -3 130 -3 184c0 19 -2 41 -30 41c-41 0 -52 -35 -52 -62c0 -49 55 -125 85 -163z
" />
    <glyph glyph-name="Ograve" unicode="&#xd2;" horiz-adv-x="801" 
d="M531 771l-39 -41l-201 152l57 56zM745 342c0 -211 -131 -353 -349 -353c-212 0 -340 146 -340 355c0 216 143 351 352 351c220 0 337 -153 337 -353zM654 343c0 157 -90 275 -251 275c-169 0 -255 -118 -255 -273c0 -151 83 -280 248 -280c175 0 258 121 258 278z" />
    <glyph glyph-name="Uacute" unicode="&#xda;" horiz-adv-x="723" 
d="M530 882l-201 -152l-39 41l183 167zM639 399c0 -46 -1 -127 -2 -162c-7 -188 -138 -246 -276 -246c-148 0 -266 54 -276 219c-2 37 -2 118 -2 203c0 97 3 270 3 270h85s-2 -162 -2 -243c0 -58 1 -135 2 -201c2 -118 71 -173 190 -173c125 0 190 50 196 187
c1 23 1 81 1 147c0 148 -1 283 -1 283h80s2 -211 2 -284z" />
    <glyph glyph-name="Ucircumflex" unicode="&#xdb;" horiz-adv-x="723" 
d="M533 751l-39 -41l-132 106l-131 -106l-39 41l140 136h62zM639 399c0 -46 -1 -127 -2 -162c-7 -188 -138 -246 -276 -246c-148 0 -266 54 -276 219c-2 37 -2 118 -2 203c0 97 3 270 3 270h85s-2 -162 -2 -243c0 -58 1 -135 2 -201c2 -118 71 -173 190 -173
c125 0 190 50 196 187c1 23 1 81 1 147c0 148 -1 283 -1 283h80s2 -211 2 -284z" />
    <glyph glyph-name="Ugrave" unicode="&#xd9;" horiz-adv-x="723" 
d="M432 771l-39 -41l-201 152l57 56zM639 399c0 -46 -1 -127 -2 -162c-7 -188 -138 -246 -276 -246c-148 0 -266 54 -276 219c-2 37 -2 118 -2 203c0 97 3 270 3 270h85s-2 -162 -2 -243c0 -58 1 -135 2 -201c2 -118 71 -173 190 -173c125 0 190 50 196 187c1 23 1 81 1 147
c0 148 -1 283 -1 283h80s2 -211 2 -284z" />
    <glyph glyph-name="dotlessi" unicode="&#x131;" horiz-adv-x="253" 
d="M166 0h-79v471h79v-471z" />
    <glyph glyph-name="circumflex" unicode="&#x2c6;" 
d="M421 551l-39 -41l-132 106l-131 -106l-39 41l140 136h62z" />
    <glyph glyph-name="tilde" unicode="&#x2dc;" 
d="M415 603c0 0 -42 -58 -105 -58c-48 0 -83 43 -123 43c-32 0 -54 -11 -75 -40l-26 55s40 58 105 58c52 0 84 -43 123 -43c47 0 75 40 75 40z" />
    <glyph glyph-name="macron" unicode="&#xaf;" 
d="M392 570h-283v67h283v-67z" />
    <glyph glyph-name="breve" unicode="&#x2d8;" 
d="M421 631c0 0 -52 -85 -172 -85c-122 0 -169 85 -169 85l26 58s61 -72 148 -72c86 0 141 72 141 72z" />
    <glyph glyph-name="dotaccent" unicode="&#x2d9;" 
d="M304 639c0 -31 -26 -51 -54 -51s-54 20 -54 51s26 52 54 52s54 -21 54 -52z" />
    <glyph glyph-name="ring" unicode="&#x2da;" 
d="M368 644c0 -69 -52 -108 -116 -108c-61 0 -119 31 -119 106c0 72 57 110 117 110c51 0 118 -28 118 -108zM311 643c0 36 -29 59 -61 59c-36 0 -60 -21 -60 -57s25 -60 61 -60s60 22 60 58z" />
    <glyph glyph-name="cedilla" unicode="&#xb8;" 
d="M349 -150c0 -59 -46 -99 -116 -99c-61 0 -90 20 -90 20l9 54s35 -21 78 -21c34 0 58 11 58 35c0 39 -53 54 -118 65v39l34 69l58 -9l-24 -50c71 -15 111 -48 111 -103z" />
    <glyph glyph-name="hungarumlaut" unicode="&#x2dd;" 
d="M483 682l-201 -152l-39 41l183 167zM257 682l-201 -152l-39 41l183 167z" />
    <glyph glyph-name="ogonek" unicode="&#x2db;" 
d="M367 -194c0 0 -29 -31 -100 -31c-93 0 -116 71 -116 119c0 88 83 128 83 128l47 -30s-59 -38 -59 -89c0 -46 27 -63 64 -63c33 0 64 24 64 24z" />
    <glyph glyph-name="caron" unicode="&#x2c7;" 
d="M420 666l-140 -136h-62l-139 136l39 41l132 -106l131 106z" />
    </font>
</defs>
</svg>
